El hombre lobo | 2010 | Terror | 60Fps | Extended | BDrip 720p x264.mkv | cast.ac3 Sub.Esp.| 7.64Gb

Título original : The Wolfman / El hombre lobo
Año : 2010
Duración : 98 min.
País : Estados Unidos
Director : Joe Johnston
Guión : Andrew Kevin Walker, David Self (Remake: Curt Siodmak)
Música : Danny Elfman
Fotografía : Shelly Johnson
Reparto : Benicio Del Toro, Hugo Weaving, Anthony Hopkins, Emily Blunt, Geraldine Chaplin, Max von Sydow, Art Malik, Catherine Balavage, Richard James, Olga Fedori, Stuart St. Paul, Robert Roman Ratajczak, Asa Butterfield
Productora : Universal Pictures / Relativity Media / Stuber Pictures

Terror. Thriller | Hombres lobo. Remake

La infancia de Lawrence Talbot se acabó bruscamente la noche en que murió su madre. Abandonó entonces su pueblo (Blackmoor), pero tardó muchos años en recuperarse y olvidar. Un día, Gwen Conliffe, la prometida de su hermano le pide que le ayude a buscarlo, pues ha desaparecido. Talbot regresa entonces a casa y se entera de que un ser brutal y sediento de sangre ha matado a muchos campesinos. Pronto descubre que existe una antigua maldición que convierte a las víctimas en hombres lobo durante las noches de luna llena. Para acabar con la matanza y proteger a la mujer de la que se ha enamorado, Talbot debe destruir a la temible criatura que se esconde en los bosques cercanos al pueblo. Cuando, finalmente, sale en su busca, descubre que él también tiene un lado oscuro y primitivo que ni siquiera podía imaginar. Remake del clásico de 1941 de Curt Siodmak.

Cita:

Formato : Matroska
Tamaño del archivo : 7.64 GiB
Duration : 1h. 58min.
Overall bit rate : 9223 Kbps
Velocidad de cuadro : 59,940fps
AUDIO 1 : Español AC3 5.1 448Kbps
Subtitulo : Español / Ingles
Capitulos : NO

MEDIAINFO

Spoiler

Formato : Matroska
Format version : Version 4 / Version 2
Tamaño del archivo : 7.64 GiB
Duration : 1h. 58min.
Overall bit rate : 9 223 Kbps
Movie : The.Wolfman.- 720p. 60fps By Janko

Video
Número de canales : 1
Formato : AVC
Formato/Info : Advanced Video Codec
Format profile : High@L4.1
Format settings, CABAC : Si
Format settings, ReFrames : 6 frames
Codec ID : V_MPEG4/ISO/AVC
Duration : 1h. 58min.
Bitrate : 8 592 Kbps
Ancho : 1 280 píxeles
Alto : 704 píxeles
Display aspect ratio : 16:9
Promedio de cuadros : 59.940 fps
Color space : YUV
Chroma subsampling : 4:2:0
Bit depth : 8 bit
Scan type : Progressive
Bits/(Pixel*cuadros) : 0.159
Stream size : 7.12 GiB (93%)
Título : The.Wolfman.- 720p. 60fps By Janko
Idioma : español

Audio
Número de canales : 2
Formato : AC-3
Formato/Info : Audio Coding 3
Mode extension : CM (complete main)
Codec ID : A_AC3
Duration : 1h. 58min.
Tipo de Bitrate : Constant
Bitrate : 448 Kbps
Canales : 6 canales
ChannelPositions : Front: L C R, Side: L R, LFE
promedio de muestreo : 48.0 KHz
Bit depth : 16 bit
Compression mode : Lossy
Delay relative to video : 12ms.
Stream size : 380 MiB (5%)
Idioma : español

Texto #1
Número de canales : 3
Formato : UTF-8
Codec ID : S_TEXT/UTF8
Codec ID/Info : UTF-8 Plain Text
Idioma : español

Texto #2
Número de canales : 4
Formato : ASS
Codec ID : S_TEXT/ASS
Codec ID/Info : Advanced Sub Station Alpha
Compression mode : Lossless
Idioma : inglés

Cita:

52 archivos de 150mb y 1 de 37mb
3 archivos REV
Descarga por DLC o Click´N´Load

Código:

nCrypt.in - UPLOADED / TUSFILES

Share-Links.biz - UPLOADED / TUSFILES