[Family] Tini - Violettas Zukunft HD 1080p

Tini - Violettas Zukunft 1080p WEB HD-Shark

Code:

    * Titel: Tini - Violettas Zukunft
    * Originaltitel: Tini - El gran cambio de Violetta
    * Videoquelle: WEB
    * Videocodec: x264
    * Audioquelle: WEB
    * Audiocodec: AAC & AC3
    * Jahr: 2016
    * Sprachen: Deutsch & Spanisch
    * Auflösung: 1916x800
    * Videoverkapselung: MOV

# Cryptor: Uploaded, Share-Online, 1fichier, UpToBox

http://cryptor.to/folder/VHroG3n

# Passwort (Cryptor & Archiv)

skotp

# Untertitel (Deutsch) -> auf UpToBox (Format: SRT - Textuntertitel)

http://uptobox.com/rpowgyu9ll5b

Viel Spaß! smile Wenn euch der Post gefällt bitte bedanken.

# MediaInfo

General
Complete name : Tini_ Violettas Zukunft 1080p HD-Shark.mov
Format : MPEG-4
Format profile : Base Media / Version 2
Codec ID : mp42 (mp42/isom)
File size : 3.85 GiB
Duration : 1 h 39 min
Overall bit rate mode : Variable
Overall bit rate : 5 561 kb/s
Movie name : Tini: Violettas Zukunft
Performer : Juan Pablo Buscarini
Genre : Familie und Kinder
Description : Nach ihrer Rückkehr von einer Welttournee ereilen Violetta (Martina 'Tini' Stoessel) unerwartete Neuigkeiten. An einem Wendepunkt ihres Lebens angelangt, stellt sie alles in Frage. So begibt sie sich einen Sommer lang an einem malerischen Küstenstrich in
Recorded date : UTC 2016-11-03 07:00:00
Encoded date : UTC 2017-04-12 08:25:23
Tagged date : UTC 2017-04-12 08:44:00
Cover : Yes
LongDescription : Nach ihrer Rückkehr von einer Welttournee ereilen Violetta (Martina 'Tini' Stoessel) unerwartete Neuigkeiten. An einem Wendepunkt ihres Lebens angelangt, stellt sie alles in Frage. So begibt sie sich einen Sommer lang an einem malerischen Küstenstrich in Italien auf eine Selbstfindungsreise, in deren Verlauf sie künstlerisch, musikalisch und persönlich aufblüht. Als dann Vergangenheit, Gegenwart und Zukunft aufeinanderprallen, entdeckt Violetta ihr wahres Ich und wird zu der Frau und Künstlerin, zu der sie bestimmt ist: Tini.

Video
ID : 5
Format : AVC
Format/Info : Advanced Video Codec
Format profile : High@L4
Format settings, CABAC : Yes
Format settings, ReFrames : 5 frames
Codec ID : avc1
Codec ID/Info : Advanced Video Coding
Duration : 1 h 39 min
Bit rate : 4 536 kb/s
Width : 1 916 pixels
Height : 800 pixels
Display aspect ratio : 2.40:1
Frame rate mode : Variable
Frame rate : 23.976 FPS
Minimum frame rate : 23.077 FPS
Maximum frame rate : 54.545 FPS
Color space : YUV
Chroma subsampling : 4:2:0
Bit depth : 8 bits
Scan type : Progressive
Bits/(Pixel*Frame) : 0.123
Stream size : 3.14 GiB (82%)
Language : English
Encoded date : UTC 2017-04-12 08:39:42
Tagged date : UTC 2017-04-12 08:43:35
Color range : Limited
Color primaries : BT.709
Transfer characteristics : BT.709
Matrix coefficients : BT.709

Audio #1
ID : 1
Format : AAC
Format/Info : Advanced Audio Codec
Format profile : LC
Codec ID : 40
Duration : 1 h 38 min
Bit rate mode : Variable
Bit rate : 126 kb/s
Maximum bit rate : 190 kb/s
Channel(s) : 2 channels
Channel positions : Front: L R
Sampling rate : 48.0 kHz
Frame rate : 46.875 FPS (1024 spf)
Compression mode : Lossy
Stream size : 89.3 MiB (2%)
Language : German
Default : Yes
Alternate group : 1
Encoded date : UTC 2017-04-12 08:25:25
Tagged date : UTC 2017-04-12 08:29:10
Menus : 9

Audio #2
ID : 2
Format : AC-3
Format/Info : Audio Coding 3
Format settings, Endianness : Big
Codec ID : ac-3
Duration : 1 h 38 min
Bit rate mode : Constant
Bit rate : 384 kb/s
Channel(s) : 6 channels
Channel positions : Front: L C R, Side: L R, LFE
Sampling rate : 48.0 kHz
Frame rate : 31.250 FPS (1536 spf)
Bit depth : 16 bits
Compression mode : Lossy
Stream size : 271 MiB (7%)
Language : German
Service kind : Complete Main
Default : No
Alternate group : 1
Encoded date : UTC 2017-04-12 08:29:11
Tagged date : UTC 2017-04-12 08:32:43

Audio #3
ID : 3
Format : AAC
Format/Info : Advanced Audio Codec
Format profile : LC
Codec ID : 40
Duration : 1 h 38 min
Bit rate mode : Variable
Bit rate : 127 kb/s
Maximum bit rate : 193 kb/s
Channel(s) : 2 channels
Channel positions : Front: L R
Sampling rate : 48.0 kHz
Frame rate : 46.875 FPS (1024 spf)
Compression mode : Lossy
Stream size : 89.7 MiB (2%)
Language : Spanish
Default : No
Alternate group : 1
Encoded date : UTC 2017-04-12 08:32:44
Tagged date : UTC 2017-04-12 08:35:52

Audio #4
ID : 4
Format : AC-3
Format/Info : Audio Coding 3
Format settings, Endianness : Big
Codec ID : ac-3
Duration : 1 h 38 min
Bit rate mode : Constant
Bit rate : 384 kb/s
Channel(s) : 6 channels
Channel positions : Front: L C R, Side: L R, LFE
Sampling rate : 48.0 kHz
Frame rate : 31.250 FPS (1536 spf)
Bit depth : 16 bits
Compression mode : Lossy
Stream size : 271 MiB (7%)
Language : Spanish
Service kind : Complete Main
Default : No
Alternate group : 1
Encoded date : UTC 2017-04-12 08:35:53
Tagged date : UTC 2017-04-12 08:39:41

Text #1
ID : 6
Format : Timed Text
Muxing mode : sbtl
Codec ID : tx3g
Duration : 1 h 29 min
Bit rate mode : Variable
Bit rate : 6 b/s
Stream size : 3.68 KiB (0%)
Language : German
Default : Yes
Forced : No
Alternate group : 2
Encoded date : UTC 2017-04-12 08:43:36
Tagged date : UTC 2017-04-12 08:43:38

Text #2
ID : 7
Format : Timed Text
Muxing mode : sbtl
Codec ID : tx3g
Duration : 1 h 34 min
Bit rate mode : Variable
Bit rate : 103 b/s
Stream size : 71.6 KiB (0%)
Language : German
Default : No
Forced : No
Alternate group : 2
Encoded date : UTC 2017-04-12 08:43:39
Tagged date : UTC 2017-04-12 08:43:55
Forced Alternative : 6

Text #3
ID : 8
Format : Timed Text
Muxing mode : sbtl
Codec ID : tx3g
Duration : 1 s 0 ms
Bit rate : 264 b/s
Stream size : 33.0 Bytes (0%)
Language : Spanish
Default : No
Forced : No
Alternate group : 2
Encoded date : UTC 2017-04-12 08:43:56
Tagged date : UTC 2017-04-12 08:43:58

Menu
ID : 9
Codec ID : text
Duration : 1 h 39 min
Encoded date : UTC 2017-04-12 08:44:00
Tagged date : UTC 2017-04-12 08:44:00
Menu For : 1
00:00:00.000 : Kapitel 1
00:05:27.000 : Kapitel 2
00:11:07.000 : Kapitel 3
00:15:48.000 : Kapitel 4
00:22:30.000 : Kapitel 5
00:28:38.000 : Kapitel 6
00:33:23.000 : Kapitel 7
00:38:01.000 : Kapitel 8
00:42:56.000 : Kapitel 9
00:46:50.000 : Kapitel 10
00:49:42.000 : Kapitel 11
00:54:46.000 : Kapitel 12
00:59:01.000 : Kapitel 13
01:05:07.000 : Kapitel 14
01:11:02.000 : Kapitel 15
01:16:02.000 : Kapitel 16
01:25:19.000 : Kapitel 17
01:30:00.000 : Kapitel 18
01:34:27.000 : Kapitel 19
Bit rate mode : VBR





Tini - Violettas Zukunft - Am Set



Violetta - Der Weg zum Erfolg


[Pop] Violetta - Crecimos Juntos (2015)


[Pop] Violetta - Violetta (2012)


[Pop] Violetta - Violetta En Vivo (Live) (2014)


[Pop] Violetta - La Musica Es Mi Mundo (2013)