[Fantasy] Der dunkle Turm 2017 German DTS DL 1080p BluRay x265 - FURTUM


Releasename
Der.dunkle.Turm.2017.German.DTS.DL.1080p.BluRay.x2 65-FURTUM


Titel: Der dunkle Turm Director: Stephen King, Haruki Murakami Genre: Fantasy
Laufzeit: 94 Min. Sprache/n: Deutsch , Englisch
Video Stream: BD Video Format: MPEG-H H.265 / HEVC
Audio Stream: DTS 5.1
Hoster: Share-online.biz, Rapidgator.net
Größe: 4044,72 MB Part size: 1000 MB Parts: 5 Dateien
Part Größe kann nach einem REUP Stark Variieren.

https://www.youtube.com/watch?v=CVNffoqgKpk


Revolvermann Roland Deschain ist der letzte seiner Art und gefangen in einem ewigen Kampf mit Walter O'Dim, auch bekannt als der Mann in Schwarz. Roland ist fest entschlossen, ihn daran zu hindern, den Dunklen Turm zu Fall zu bringen, der das ganze Universum zusammenhält. Das Schicksal aller Welten steht auf dem Spiel, als das Gute und das Böse in einer ultimativen Schlacht aufeinanderprallen. Denn Roland ist der Einzige, der den Dunklen Turm vor dem Mann in Schwarz verteidigen kann.

http://www.share-online.biz/dl/HA2YQLZODTZ

Code:

Duration                                : 1 h 34 min
Overall bit rate                        : 5 746 kb/s
Encoded date                            : UTC 2017-11-18 04:19:03
Writing application                      : mkvmerge v17.0.0 ('Be Ur Friend ) 64-bit
Writing library                          : libebml v1.3.5 + libmatroska v1.4.8

Video
ID                                      : 1
Format                                  : HEVC
Format/Info                              : High Efficiency Video Coding
Format profile                          : Main@L4@Main
Codec ID                                : V_MPEGH/ISO/HEVC
Duration                                : 1 h 34 min
Bit rate                                : 2 665 kb/s
Width                                    : 1 920 pixels
Height                                  : 800 pixels
Display aspect ratio                    : 2.40:1
Frame rate mode                          : Constant
Frame rate                              : 23.976 (24000/1001) FPS
Color space                              : YUV
Chroma subsampling                      : 4:2:0
Bit depth                                : 8 bits
Bits/(Pixel*Frame                        : 0.072
Stream size                              : 1.76 GiB (46%)
Writing library                          : x265 2.5+2-18fa144d453e:[Windows][GCC 7.1.0][64 bit] 8bit+10bit+12bit
Encoding settings                        : cpuid=1050111 / frame-threads=3 / numa-pools=8 / wpp / no-pmode / no-pme / no-psnr / no-ssim / log-level=2 / input-csp=1 / input-res=1920x800 / interlace=0 / total-frames=136296 / level-idc=0 / high-tier=1 / uhd-bd=0 / ref=4 / no-allow-non-conformance / no-repeat-headers / annexb / no-aud / no-hrd / info / hash=0 / no-temporal-layers / open-gop / min-keyint=23 / keyint=250 / bframes=4 / b-adapt=2 / b-pyramid / bframe-bias=0 / rc-lookahead=25 / lookahead-slices=4 / scenecut=40 / no-intra-refresh / ctu=64 / min-cu-size=8 / rect / no-amp / max-tu-size=32 / tu-inter-depth=1 / tu-intra-depth=1 / limit-tu=0 / rdoq-level=2 / dynamic-rd=0.00 / no-ssim-rd / signhide / no-tskip / nr-intra=0 / nr-inter=0 / no-constrained-intra / strong-intra-smoothing / max-merge=3 / limit-refs=3 / limit-modes / me=3 / subme=3 / merange=57 / temporal-mvp / weightp / no-weightb / no-analyze-src-pics / deblock=0:0 / sao / no-sao-non-deblock / rd=4 / no-early-skip / rskip / no-fast-intra / no-tskip-fast / no-cu-lossless / no-b-intra / rdpenalty=0 / psy-rd=2.00 / psy-rdoq=1.00 / no-rd-refine / analysis-reuse-mode=0 / no-lossless / cbqpoffs=0 / crqpoffs=0 / rc=crf / crf=20.0 / qcomp=0.60 / qpstep=4 / stats-write=0 / stats-read=0 / ipratio=1.40 / pbratio=1.30 / aq-mode=1 / aq-strength=1.00 / cutree / zone-count=0 / no-strict-cbr / qg-size=32 / no-rc-grain / qpmax=69 / qpmin=0 / no-const-vbv / sar=1 / overscan=0 / videoformat=5 / range=0 / colorprim=2 / transfer=2 / colormatrix=2 / chromaloc=0 / display-window=0 / max-cll=0,0 / min-luma=0 / max-luma=255 / log2-max-poc-lsb=8 / vui-timing-info / vui-hrd-info / slices=1 / opt-qp-pps / opt-ref-list-length-pps / no-multi-pass-opt-rps / scenecut-bias=0.05 / no-opt-cu-delta-qp / no-aq-motion / no-hdr / no-hdr-opt / no-dhdr10-opt / analysis-reuse-level=5 / scale-factor=0 / refine-intra=0 / refine-inter=0 / refine-mv=0 / no-limit-sao / ctu-info=0
Default                                  : Yes
Forced                                  : No

Audio #1
ID                                      : 3
Format                                  : DTS
Format/Info                              : Digital Theater Systems
Mode                                    : 16
Format settings, Endianness              : Big
Codec ID                                : A_DTS
Duration                                : 1 h 34 min
Bit rate mode                            : Constant
Bit rate                                : 1 509 kb/s
Channel(s                                : 6 channels
Channel positions                        : Front: L C R, Side: L R, LFE
Sampling rate                            : 48.0 kHz
Frame rate                              : 93.750 FPS (512 SPF)
Bit depth                                : 16 bits
Compression mode                        : Lossy
Stream size                              : 1 023 MiB (26%)
Language                                : German
Default                                  : Yes
Forced                                  : No

Audio #2
ID                                      : 4
Format                                  : DTS
Format/Info                              : Digital Theater Systems
Mode                                    : 16
Format settings, Endianness              : Big
Codec ID                                : A_DTS
Duration                                : 1 h 34 min
Bit rate mode                            : Constant
Bit rate                                : 1 509 kb/s
Channel(s                                : 6 channels
Channel positions                        : Front: L C R, Side: L R, LFE
Sampling rate                            : 48.0 kHz
Frame rate                              : 93.750 FPS (512 SPF)
Bit depth                                : 24 bits
Compression mode                        : Lossy
Stream size                              : 1 023 MiB (26%)
Language                                : English
Default                                  : No
Forced                                  : No

Text #1
ID                                      : 2
Format                                  : UTF-8
Codec ID                                : S_TEXT/UTF8
Codec ID/Info                            : UTF-8 Plain Text
Duration                                : 1 h 33 min
Bit rate                                : 0 b/s
Count of elements                        : 11
Stream size                              : 439 Bytes (0%)
Language                                : German
Default                                  : Yes
Forced                                  : No

Text #2
ID                                      : 5
Format                                  : PGS
Muxing mode                              : zlib
Codec ID                                : S_HDMV/PGS
Codec ID/Info                            : Picture based subtitle format used on BDs/HD-DVDs
Duration                                : 1 h 33 min
Bit rate                                : 25.8 kb/s
Count of elements                        : 2110
Stream size                              : 17.2 MiB (0%)
Language                                : English
Default                                  : No
Forced                                  : No

Text #3
ID                                      : 6
Format                                  : PGS
Muxing mode                              : zlib
Codec ID                                : S_HDMV/PGS
Codec ID/Info                            : Picture based subtitle format used on BDs/HD-DVDs
Duration                                : 1 h 25 min
Bit rate                                : 24.4 kb/s
Count of elements                        : 1782
Stream size                              : 14.9 MiB (0%)
Language                                : English
Default                                  : No
Forced                                  : No

Text #4
ID                                      : 7
Format                                  : PGS
Muxing mode                              : zlib
Codec ID                                : S_HDMV/PGS
Codec ID/Info                            : Picture based subtitle format used on BDs/HD-DVDs
Duration                                : 1 h 25 min
Bit rate                                : 24.4 kb/s
Count of elements                        : 1784
Stream size                              : 14.9 MiB (0%)
Language                                : English
Default                                  : No
Forced                                  : No

Text #5
ID                                      : 8
Format                                  : PGS
Muxing mode                              : zlib
Codec ID                                : S_HDMV/PGS
Codec ID/Info                            : Picture based subtitle format used on BDs/HD-DVDs
Duration                                : 1 h 33 min
Bit rate                                : 24.1 kb/s
Count of elements                        : 1740
Stream size                              : 16.1 MiB (0%)
Language                                : German
Default                                  : No
Forced                                  : No

Text #6
ID                                      : 9
Format                                  : PGS
Muxing mode                              : zlib
Codec ID                                : S_HDMV/PGS
Codec ID/Info                            : Picture based subtitle format used on BDs/HD-DVDs
Duration                                : 1 h 25 min
Bit rate                                : 24.4 kb/s
Count of elements                        : 1784
Stream size                              : 14.9 MiB (0%)
Language                                : German
Default                                  : No
Forced                                  : No

Der.dunkle.Turm.2017.German.DTS.DL.1080p.BluRay.x2 65-FURTUM

Der.dunkle.Turm.2017.German.DTS.DL.1080p.BluRay.x2 65-FURTUM

Reups werde ich mehrmals die Woche vornehmen, es kann sein Das sich die Part Größe ändert. zb. 100MB oder 500 ist angegeben, dann könnte es bei einem ReUp 101/152/501MB usw.. sein.(Wenn es für die Moderation Ok ist). Sollten die Files auf verschiedene Hoster denselben Namen habe, sind sie untereinander Kompatibel, ansonsten kein Mirror. Wenn etwas down ist und es als online angezeigt wird, schreibe mir einfach eine PN Antwort und reup versuch garantiert solange ich die Files noch habe. Reupps für ca einen Monat oder bis zum neuen Release TS, Web,BD, Mic, LD, Retail sound.




[Fantasy] Faust German 2011 AC3 DVDRiP XviD - XF