El ángel de Budapest

Título original
El ángel de Budapest (TV)
Año
2011
Duración
120 min.
País
España
Director
Luis Oliveros
Guión
Ángel Aranda Lamas (Libro: Diego Carcedo)
Música
Mario de Benito
Fotografía
Nyika Jancsó
Reparto
Francis Lorenzo, Ana Fernández, Manuel de Blas, Anna Allen, Aldo Sebastianelli
Productora
Emitida por la cadena TVE; Boomerang / TVE
Género
Drama | Basado en hechos reales. Nazismo. Años 40. II Guerra Mundial. Telefilm
Sinopsis
Budapest, 1944. Segunda Guerra Mundial (1939-1945). Adolf Eichman dirige la deportación masiva de judíos húngaros al campo de exterminio de Auschwitz. Ángel Sanz-Briz (Zaragoza, 1910-Roma, 1980), un diplomático de la embajada española en Budapest, utilizó todos los medios a su alcance para salvar el mayor número de vidas posible. Para ello, emitió miles de visados y pasaportes que garantizaban la inmunidad de sus portadores, llegando a burlar en ocasiones a las autoridades alemanas y a sus colaboradores húngaros. Su actividad cesó cuando, en diciembre de 1944, le ordenaron regresar a España. Había logrado salvar a casi 5.000 judíos. Desde entonces, se le conoce como "El Ángel de Budapest".

Spoiler

General
Complete name : G:\Downloads\El.angel.de.Budapest Hdrip ll.avi
Format : AVI
Format/Info : Audio Video Interleave
File size : 1.49 GiB
Duration : 1h 49mn
Overall bit rate : 1 950 Kbps
Movie name : El.Angel.de.Budapest(Abantos)
Writing application : VirtualDubMod 1.5.10.2 (build 2540/release)
Writing library : VirtualDubMod build 2540/release
Original source form/Name : El.Angel.de.Budapest(Abantos)

Video
ID : 0
Format : MPEG-4 Visual
Format profile : Advanced Simple@L5
Format settings, BVOP : 2
Format settings, QPel : No
Format settings, GMC : No warppoints
Format settings, Matrix : Default (H.263)
Muxing mode : Packed bitstream
Codec ID : DX50
Codec ID/Hint : DivX 5
Duration : 1h 49mn
Bit rate : 1 748 Kbps
Width : 720 pixels
Height : 404 pixels
Display aspect ratio : 16:9
Frame rate : 25.000 fps
Color space : YUV
Chroma subsampling : 4:2:0
Bit depth : 8 bits
Scan type : Progressive
Compression mode : Lossy
Bits/(Pixel*Frame) : 0.240
Stream size : 1.33 GiB (90%)
Writing library : XviD 1.2.1 (UTC 2008-12-04)

Audio
ID : 1
Format : AC-3
Format/Info : Audio Coding 3
Mode extension : CM (complete main)
Format settings, Endianness : Big
Codec ID : 2000
Duration : 1h 49mn
Bit rate mode : Constant
Bit rate : 192 Kbps
Channel(s) : 2 channels
Channel positions : Front: L R
Sampling rate : 48.0 KHz
Bit depth : 16 bits
Compression mode : Lossy
Stream size : 150 MiB (10%)
Alignment : Split accross interleaves
Interleave, duration : 40 ms (1.00 video frame)
Interleave, preload duration : 500 ms

Servidores
uploaded.to/tusfiles/uptobox/cloudzilla/mediafree/1fichier
cortado con winrar

http://sh.st/fiuHX



Caballeros del Zodiaco - El Lienzo Perdido


Juego de Tronos T.5



[Pop] Luis Fonsi


PEPS v7


move 2015.1


Blue Bloods (Familia de Policías) T5



[EH] Quai D´Orsay - Lanzac & Blain