[Sci-Fi] Stargate Atlantis COMPLETE German DL AC3 1080p HDTV - x264

Stargate Atlantis COMPLETE German DL AC3 1080p HDTV - x264

Unter der Leitung von Dr. Elisabeth Weir (Torri Higginson) und Lieutenant Colonel John Sheppard (Joe Flanigan) macht sich ein internationales Team von Weltraumspezialisten auf die Reise, zur sagenumwobene „verlorene Stadt“ Atlantis, um dort einen neuen Stützpunkt zu gründen. Die einst von mächtigen Geschöpfen errichtete Stadt befindet sich in der weit entfernten „Pegasus-Galaxie“. Gleich auf dem ersten Planeten, den sie auf ihrer Reise besuchen, erwecken sie unabsichtlich einen neuen teuflischen Feind, Geschöpfe names Wraith, die nach Menschenfleisch gieren und sich im Laufe der Serie als gefährlichster Gegner entpuppen, dem sich die Menschheit je gegenüber sah! Zusätzlich taucht auch ein alter Feind wieder auf, gefährlicher als je zuvor, die Replikatoren

Episoden Staffel 1:

01 Aufbruch in eine neue Welt (1)
02 Aufbruch in eine neue Welt (2)
03 Dunkle Schatten
04 38 Minuten
05 Unter Verdacht
06 Selbstopfer
07 Tödliche Verteidigung
08 Im Untergrund
09 Zurück auf die Erde
10 Der Sturm
11 Das Auge
12 Der Überlebende
13 Hot Zone
14 Chaya
15 10.000 Jahre
16 Bruderschaft
17 Nachrichten aus der Pegasus-Galaxie
18 Die Gabe
19 Die Belagerung (1)
20 Die Belagerung (2)

Episoden Staffel 2:

01 Die Belagerung (3)
02 Der Eindringling
03 Dromoys
04 Duett
05 Verurteilt
06 Das Geheimnis der Antiker
07 Instinkt
08 Verwandlung
09 Aurora
10 Das Enzym
11 Im Netz der Königin
12 Epiphanie
13 Die Goa’Uld schlagen zu
14 Halluzinationen
15 Der Turm
16 Phoebus und Thalan
17 Der Staatsstreich
18 Michael
19 Inferno
20 Das Bündnis

Episoden Staffel 3:

01 Niemandsland
02 Ein schlechter Plan
03 Der Zaubertrank
04 Sateda
05 Der Bruderstreit
06 Atlantis ruft
07 Ein ungewöhnlicher Verbündeter
08 Der doppelte Rodney
09 Phantome
10 Die Rückkehr (1)
11 Die Rückkehr (2)
12 Die Warnung
13 Kolyas Ende
14 Rodney’s Tao
15 Das Spiel
16 Die Arche
17 Ein freier Tag
18 Untergetaucht
19 Rache
20 Der Angriff

Episoden Staffel 4:

01 Verloren im All
02 Rettungsleine
03 Das Wiedersehen
04 Doppelgänger
05 Reisende
06 Tabula Rasa
07 Verschollen
08 Der Seher
09 Fehlentscheidung
10 Die Mühsal des Sterblichen
11 Große und kleine Sünden
12 Kriegsbeute
13 Quarantäne
14 Prinzessin Harmony
15 Die Ausgestoßene
16 Trio
17 Auf der Mittelstation
18 Verwandte – Teil 1
19 Verwandte – Teil 2
20 Der letzte Mann

Episoden Staffel 5:

01 Such- und Rettungsaktion
02 Der Keim
03 Gelöste Fesseln
04 Die Daedalus-Variationen
05 Geist in der Maschine
06 Der Schrein
07 Geflüster
08 Die Königin
09 Fährtensucher
10 Erster Kontakt
11 Der verlorene Stamm
12 Außenseiter
13 Inquisition
14 Mutterliebe
15 Überreste
16 Eiszeit
17 Infektion
18 Identität
19 Vegas
20 Feind in Sicht

Kurzinfo:
erman SiFi TV-Edition
kein gedubbtes Release, beide Tonspuren absolut synchron
Video: 8 634 kbps, High@L4, 25.000 fps
Auflösung: 1920×1080, 16:9, MBAFF
Audio 1: Deutsch AC3 5.1 384 kbps
Audio 2: English AC3 2.0 384 kbps

Media-Info:

Code:

General
Unique ID                                : 308729184885352371976515406744682893539 (0xE84314041BDEB54A94EE32C752CA10E3)
Complete name                            : S01E01.Atlantis.Aufbruch.in.eine.neue.Welt.Teil.1.mkv
Format                                  : Matroska
Format version                          : Version 4 / Version 2
File size                                : 2.75 GiB
Duration                                : 45mn 33s
Overall bit rate                        : 8 634 Kbps
Encoded date                            : UTC 2017-12-02 19:21:14
Writing application                      : TMPGEnc MPEG Smart Renderer
Writing library                          : TMPGEnc MPEG Smart Renderer

Video
ID                                      : 1
Format                                  : AVC
Format/Info                              : Advanced Video Codec
Format profile                          : High@L4
Format settings, CABAC                  : Yes
Format settings, ReFrames                : 3 frames
Codec ID                                : V_MPEG4/ISO/AVC
Duration                                : 45mn 33s
Bit rate                                : 7 694 Kbps
Width                                    : 1 920 pixels
Height                                  : 1 080 pixels
Display aspect ratio                    : 16:9
Frame rate mode                          : Constant
Frame rate                              : 25.000 fps
Standard                                : Component
Color space                              : YUV
Chroma subsampling                      : 4:2:0
Bit depth                                : 8 bits
Scan type                                : Interlaced
Scan order                              : Top Field First
Bits/(Pixel*Frame)                      : 0.148
Stream size                              : 2.45 GiB (89%)
Default                                  : Yes
Forced                                  : No
Color range                              : Limited
Color primaries                          : BT.601 PAL
Transfer characteristics                : BT.470 System B, BT.470 System G
Matrix coefficients                      : BT.601

Audio #1
ID                                      : 2
Format                                  : AC-3
Format/Info                              : Audio Coding 3
Mode extension                          : CM (complete main)
Format settings, Endianness              : Big
Codec ID                                : A_AC3
Duration                                : 45mn 33s
Bit rate mode                            : Constant
Bit rate                                : 384 Kbps
Channel(s)                              : 6 channels
Channel positions                        : Front: L C R, Side: L R, LFE
Sampling rate                            : 48.0 KHz
Compression mode                        : Lossy
Stream size                              : 125 MiB (4%)
Default                                  : Yes
Forced                                  : No

Audio #2
ID                                      : 3
Format                                  : AC-3
Format/Info                              : Audio Coding 3
Mode extension                          : CM (complete main)
Format settings, Endianness              : Big
Codec ID                                : A_AC3
Duration                                : 45mn 33s
Bit rate mode                            : Constant
Bit rate                                : 384 Kbps
Channel(s)                              : 2 channels
Channel positions                        : Front: L R
Sampling rate                            : 48.0 KHz
Compression mode                        : Lossy
Stream size                              : 125 MiB (4%)
Default                                  : No
Forced                                  : No

Dauer: 75 Stunden gesamt | Format: mkv | Größe: 227,76 GB

Download Share-online.biz S01:

Hier klicken

Download Share-online.biz S02:

Hier klicken

Download Share-online.biz S03:

Hier klicken

Download Share-online.biz S04:

Hier klicken

Download Share-online.biz S05:

Hier klicken

Passwort:

movie-blog.org











[Englisch] 0-Day Week of 2017.03.08