[Klassisch] Daniel Barenboim - Strauss, Mahler, Schoenberg (2012)

Richard Strauss - Don Quixote, Don Juan, Till Eulenspiegel, Ein Heldenleben, Eine Alpensinfonie; Mahler - Symphonie Nr. 5, Das Lied von der Erde; Schoenberg - Verklarte Nacht etc. (CSO, Daniel Barenboim) (2012)

Genre: Classical
Codec: flac (*.flac)
Rip: image+.cue
Quality: lossless
Size: 1714 Mb
Host: ul.to

Tracklist

CD 1: Richard Strauss. «Don Quixote» • «Don Juan»

Richard Strauss
«Don Quixote», Op. 35 - 43:49
Introduktion. — Thema - 8:25
Variation 1 - 2:42
Variation 2 - 1:49
Variation 3 - 8:01
Variation 4 - 1:55
Variation 5 - 4:28
Variation 6 - 1:18
Variation 7 - 1:31
Variation 8 - 1:53
Variation 9 - 1:11
Variation 10 - 10:38
«Don Juan», Op. 20 - 17:21
Recorded: Orchestra Hall, Chicago, 28 May 1991

CD 2: Richard Strauss. «Till Eulenspiegels lustige Streiche» • «Ein Heldenleben»

Richard Strauss
«Till Eulenspiegels lustige Streiche», Op. 28 - 15:32
«Ein Heldenleben», Op. 40 - 47:05
I. Der Held - 4:20
II. Des Helden Widersacher - 3:48
III. Des Helden Gefährtin - 13:13
IV. Des Helden Walstatt - 6:57
V. Des Helden Friedenswerke - 6:41
VI. Des Helden Weltflucht und Vollendung - 12:06
Samuel Magad, violin
Recorded: Orchestra Hall, Chicago, September 1990

CD 3: Richard Strauss. Eine Alpensinfonie • Sinfonische Fantasie aus «Die Frau ohne Schatten»

Richard Strauss
Eine Alpensinfonie, Op. 64 - 49:45
Nacht - 3:28
Sonnenaufgang - 1:34
Der Anstieg - 2:14
Eintritt in den Wald, Wanderung neben dem Bach - 5:38
Am Wasserfall - 0:14
Erscheinung - 0:46
Auf blumigen Wiesen - 0:57
Auf der Alm - 2:04
Durch Dickicht und Gestrüpp auf Irrwegen - 1:31
Auf dem Gletscher - 1:02
Gefahrvolle Augenblicke - 1:23
Auf dem Gipfel - 4:32
Vision - 2:58
Nebel steigen auf - 0:21
Die Sonne verdüstert sich allmählich - 0:51
Elegie - 1:53
Stille von der Sturm - 2:48
Gewitter und Sturm, Abstieg - 4:00
Sonnenuntergang - 2:24
Ausklang - 6:28
Nacht - 2:38
Sinfonische Fantasie aus «Die Frau ohne Schatten» - 21:17
Recorded: Orchestra Hall, Chicago, 19 September–3 October 1992

CD 4: Gustav Mahler. Symphonie Nr. 5

Gustav Mahler
Symphonie Nr. 5 cis-moll - 1:09:15
I. Trauermarsch: In gemessenem Schritt. Streng. Wie ein Kondukt - 12:42
Stürmisch bewegt. Mit größter Vehemenz - 14:31
II. Scherzo: Kräftig, nicht zu schnell - 16:37
III. Adagietto: Sehr langsam - 9:45
Rondo-Finale: Allegro. — Allegro giocoso. Frisch - 15:39
Recorded: Philharmonie, Köln, June 1997

CD 5: Gustav Mahler. «Das Lied von der Erde»

Gustav Mahler
«Das Lied von der Erde» - 1:00:21
I. Das Trinklied vom Jammer der Erde - 7:39
II. Der Einsame im Herbst - 8:51
III. Von der Jugend - 2:52
IV. Von der Schönheit - 7:02
V. Der Trunkene im Frühling - 4:10
VI. Der Abschied - 29:47
Waltraud Meier, mezzo-soprano • Siegfried Jerusalem, tenor
Recorded: Orchestra Hall, Chicago, April & May 1991

CD 6: Arnold Schoenberg. «Verklärte Nacht» • Orchesterstücke, Op. 16 • Klavierstücke, Opp. 11, 19

Arnold Schoenberg
«Verklärte Nacht», Op. 4 - 29:35
Grave - 6:36
Molto rallentando - 4:56
A tempo - 3:06
Adagio - 10:04
Adagio, molto tranquillo - 4:54
Drei Klavierstücke, Op. 11 - 14:33
I. Mäßige Viertel - 4:00
II. Mäßige Achtel - 8:07
III. Bewegte Achtel - 2:25
Fünf Orchesterstücke, Op. 16 - 17:45
I. Vorgefühle - 2:12
II. Vergangenes - 5:34
III. Farben - 3:58
IV. Peripetie - 2:05
V. Das obligate Rezitativ - 3:56
Sechs kleine Klavierstücke, Op. 19 - 5:00
I. Leicht, zart - 1:14
II. Langsam - 0:48
III. Sehr langsame Viertel - 1:00
IV. Rasch, aber leicht - 0:23
V. Etwas rasch - 0:29
VI. Sehr langsam - 1:05
Klavierstück, Op. 11 Nr. 2 (arr. Busoni) «Konzertmäßige Interpretation» - 9:53
Recorded: Orchestra Hall, Chicago, November 1994

LOG

CD1

Exact Audio Copy V1.0 beta 3 from 29. August 2011

EAC extraction logfile from 7. November 2012, 9:20

Daniel Barenboim / Barenboim - Chicago Symphony Orchestra (CD 1 R.Strauss)

Used drive : TSSTcorpCDDVDW TS-L633M Adapter: 1 ID: 0

Read mode : Secure
Utilize accurate stream : Yes
Defeat audio cache : Yes
Make use of C2 pointers : No

Read offset correction : 6
Overread into Lead-In and Lead-Out : No
Fill up missing offset samples with silence : Yes
Delete leading and trailing silent blocks : No
Null samples used in CRC calculations : Yes
Used interface : Native Win32 interface for Win NT & 2000

Used output format : User Defined Encoder
Selected bitrate : 320 kBit/s
Quality : High
Add ID3 tag : No
Command line compressor : C:\Program Files\Exact Audio Copy\Flac\flac.exe
Additional command line options : -8 -V -T "TITLE=%title%" -T "ARTIST=%artist%" -T "ALBUMARTIST=%albumartist%" -T "ALBUM=%albumtitle%" -T "DATE=%year%" -T "TRACKNUMBER=%tracknr%" -T "TRACKTOTAL=%numtracks%" -T "GENRE=%genre%" -T "COMMENT=%comment%" -T "PERFORMER=%albuminterpret%" -T "COMPOSER=%composer%" %source% -o %dest%

TOC of the extracted CD

Track | Start | Length | Start sector | End sector
---------------------------------------------------------
1 | 0:00.00 | 8:24.62 | 0 | 37861
2 | 8:24.62 | 2:41.60 | 37862 | 49996
3 | 11:06.47 | 1:48.58 | 49997 | 58154
4 | 12:55.30 | 8:00.55 | 58155 | 94209
5 | 20:56.10 | 1:54.47 | 94210 | 102806
6 | 22:50.57 | 4:27.60 | 102807 | 122891
7 | 27:18.42 | 1:18.13 | 122892 | 128754
8 | 28:36.55 | 1:30.42 | 128755 | 135546
9 | 30:07.22 | 1:52.58 | 135547 | 144004
10 | 32:00.05 | 1:10.72 | 144005 | 149326
11 | 33:11.02 | 10:37.53 | 149327 | 197154
12 | 43:48.55 | 17:21.24 | 197155 | 275253

Range status and errors

Selected range

Filename C:\Users\JS\Desktop\Barenboim - Chicago Symphony Orchestra\cd1\Barenboim - Chicago Symphony Orchestra (CD 1 R.Strauss).wav

Peak level 100.0 %
Extraction speed 3.1 X
Range quality 100.0 %
Test CRC 98C17839
Copy CRC 98C17839
Copy OK

No errors occurred

AccurateRip summary

Track 1 not present in database
Track 2 not present in database
Track 3 not present in database
Track 4 not present in database
Track 5 not present in database
Track 6 not present in database
Track 7 not present in database
Track 8 not present in database
Track 9 not present in database
Track 10 not present in database
Track 11 not present in database
Track 12 not present in database

None of the tracks are present in the AccurateRip database

End of status report

CD2

Exact Audio Copy V1.0 beta 3 from 29. August 2011

EAC extraction logfile from 7. November 2012, 10:21

Chicago Symphony Orchestra, Daniel Barenboim / Barenboim - Chicago Symphony Orchestra (CD 2 R.Strauss)

Used drive : TSSTcorpCDDVDW TS-L633M Adapter: 1 ID: 0

Read mode : Secure
Utilize accurate stream : Yes
Defeat audio cache : Yes
Make use of C2 pointers : No

Read offset correction : 6
Overread into Lead-In and Lead-Out : No
Fill up missing offset samples with silence : Yes
Delete leading and trailing silent blocks : No
Null samples used in CRC calculations : Yes
Used interface : Native Win32 interface for Win NT & 2000

Used output format : User Defined Encoder
Selected bitrate : 320 kBit/s
Quality : High
Add ID3 tag : No
Command line compressor : C:\Program Files\Exact Audio Copy\Flac\flac.exe
Additional command line options : -8 -V -T "TITLE=%title%" -T "ARTIST=%artist%" -T "ALBUMARTIST=%albumartist%" -T "ALBUM=%albumtitle%" -T "DATE=%year%" -T "TRACKNUMBER=%tracknr%" -T "TRACKTOTAL=%numtracks%" -T "GENRE=%genre%" -T "COMMENT=%comment%" -T "PERFORMER=%albuminterpret%" -T "COMPOSER=%composer%" %source% -o %dest%

TOC of the extracted CD

Track | Start | Length | Start sector | End sector
---------------------------------------------------------
1 | 0:00.00 | 15:32.33 | 0 | 69932
2 | 15:32.33 | 4:19.65 | 69933 | 89422
3 | 19:52.23 | 3:47.58 | 89423 | 106505
4 | 23:40.06 | 13:12.55 | 106506 | 165960
5 | 36:52.61 | 6:56.52 | 165961 | 197212
6 | 43:49.38 | 6:41.30 | 197213 | 227317
7 | 50:30.68 | 12:06.16 | 227318 | 281783

Range status and errors

Selected range

Filename C:\Users\JS\Desktop\Barenboim - Chicago Symphony Orchestra\cd2\Barenboim - Chicago Symphony Orchestra (CD 2 R.Strauss).wav

Peak level 100.0 %
Extraction speed 2.1 X
Range quality 100.0 %
Test CRC 61E6B504
Copy CRC 61E6B504
Copy OK

No errors occurred

AccurateRip summary

Track 1 cannot be verified as accurate (confidence 2) [8159FB1C], AccurateRip returned [6392A46B] (AR v2)
Track 2 cannot be verified as accurate (confidence 2) [192F919B], AccurateRip returned [E37C0045] (AR v2)
Track 3 cannot be verified as accurate (confidence 2) [B152D94B], AccurateRip returned [CBFF186F] (AR v2)
Track 4 cannot be verified as accurate (confidence 2) [423B6E2E], AccurateRip returned [AA6AFB56] (AR v2)
Track 5 cannot be verified as accurate (confidence 2) [7CB6DB1E], AccurateRip returned [3A4A7CEB] (AR v2)
Track 6 cannot be verified as accurate (confidence 2) [D9A7A3F6], AccurateRip returned [6967342C] (AR v2)
Track 7 cannot be verified as accurate (confidence 2) [8A0D9069], AccurateRip returned [9ECBC333] (AR v2)

No tracks could be verified as accurate
You may have a different pressing from the one(s) in the database

End of status report

CD3

Exact Audio Copy V1.0 beta 3 from 29. August 2011

EAC extraction logfile from 7. November 2012, 11:27

Daniel Barenboim / Barenboim - Chicago Symphony Orchestra (CD 3 R.Strauss)

Used drive : TSSTcorpCDDVDW TS-L633M Adapter: 1 ID: 0

Read mode : Secure
Utilize accurate stream : Yes
Defeat audio cache : Yes
Make use of C2 pointers : No

Read offset correction : 6
Overread into Lead-In and Lead-Out : No
Fill up missing offset samples with silence : Yes
Delete leading and trailing silent blocks : No
Null samples used in CRC calculations : Yes
Used interface : Native Win32 interface for Win NT & 2000

Used output format : User Defined Encoder
Selected bitrate : 320 kBit/s
Quality : High
Add ID3 tag : No
Command line compressor : C:\Program Files\Exact Audio Copy\Flac\flac.exe
Additional command line options : -8 -V -T "TITLE=%title%" -T "ARTIST=%artist%" -T "ALBUMARTIST=%albumartist%" -T "ALBUM=%albumtitle%" -T "DATE=%year%" -T "TRACKNUMBER=%tracknr%" -T "TRACKTOTAL=%numtracks%" -T "GENRE=%genre%" -T "COMMENT=%comment%" -T "PERFORMER=%albuminterpret%" -T "COMPOSER=%composer%" %source% -o %dest%

TOC of the extracted CD

Track | Start | Length | Start sector | End sector
---------------------------------------------------------
1 | 0:00.00 | 3:27.44 | 0 | 15568
2 | 3:27.44 | 1:34.24 | 15569 | 22642
3 | 5:01.68 | 2:13.63 | 22643 | 32680
4 | 7:15.56 | 5:38.06 | 32681 | 58036
5 | 12:53.62 | 0:14.02 | 58037 | 59088
6 | 13:07.64 | 0:46.12 | 59089 | 62550
7 | 13:54.01 | 0:56.70 | 62551 | 66820
8 | 14:50.71 | 2:04.07 | 66821 | 76127
9 | 16:55.03 | 1:30.52 | 76128 | 82929
10 | 18:25.55 | 1:02.17 | 82930 | 87596
11 | 19:27.72 | 1:22.71 | 87597 | 93817
12 | 20:50.68 | 4:32.33 | 93818 | 114250
13 | 25:23.26 | 2:57.56 | 114251 | 127581
14 | 28:21.07 | 0:21.14 | 127582 | 129170
15 | 28:42.21 | 0:51.20 | 129171 | 133015
16 | 29:33.41 | 1:53.19 | 133016 | 141509
17 | 31:26.60 | 2:47.52 | 141510 | 154086
18 | 34:14.37 | 4:00.21 | 154087 | 172107
19 | 38:14.58 | 2:24.07 | 172108 | 182914
20 | 40:38.65 | 6:28.20 | 182915 | 212034
21 | 47:07.10 | 2:38.12 | 212035 | 223896
22 | 49:45.22 | 21:17.37 | 223897 | 319708

Range status and errors

Selected range

Filename C:\Users\JS\Desktop\Barenboim - Chicago Symphony Orchestra\cd3\Barenboim - Chicago Symphony Orchestra (CD 3 R.Strauss).wav

Peak level 91.2 %
Extraction speed 2.2 X
Range quality 100.0 %
Test CRC ECEA0661
Copy CRC ECEA0661
Copy OK

No errors occurred

AccurateRip summary

Track 1 not present in database
Track 2 not present in database
Track 3 not present in database
Track 4 not present in database
Track 5 not present in database
Track 6 not present in database
Track 7 not present in database
Track 8 not present in database
Track 9 not present in database
Track 10 not present in database
Track 11 not present in database
Track 12 not present in database
Track 13 not present in database
Track 14 not present in database
Track 15 not present in database
Track 16 not present in database
Track 17 not present in database
Track 18 not present in database
Track 19 not present in database
Track 20 not present in database
Track 21 not present in database
Track 22 not present in database

None of the tracks are present in the AccurateRip database

End of status report

CD4-CD6 etc...

CUE

CD1

TITLE "Richard Strauss • Gustav Mahler • Arnold Schoenberg (Chicago Symphony Orchestra, Daniel Barenboim)"
PERFORMER "Daniel Barenboim"
REM GENRE Classical
REM DISCID B00E560C
REM COMMENT "ExactAudioCopy v1.0b3"
FILE "CD 1 - Strauss. Don Quixote, Don Juan.flac" WAVE
TRACK 01 AUDIO
TITLE "«Don Quixote», Op. 35: Introduktion. — Thema"
PERFORMER "Chicago Symphony Orchestra. Daniel Barenboim, conductor"
REM DATE 1991
INDEX 01 00:00:00
TRACK 02 AUDIO
TITLE "«Don Quixote», Op. 35: Variation 1"
PERFORMER "Chicago Symphony Orchestra. Daniel Barenboim, conductor"
REM DATE 1991
INDEX 01 08:24:62
TRACK 03 AUDIO
TITLE "«Don Quixote», Op. 35: Variation 2"
PERFORMER "Chicago Symphony Orchestra. Daniel Barenboim, conductor"
REM DATE 1991
INDEX 01 11:06:47
TRACK 04 AUDIO
TITLE "«Don Quixote», Op. 35: Variation 3"
PERFORMER "Chicago Symphony Orchestra. Daniel Barenboim, conductor"
REM DATE 1991
INDEX 01 12:55:30
TRACK 05 AUDIO
TITLE "«Don Quixote», Op. 35: Variation 4"
PERFORMER "Chicago Symphony Orchestra. Daniel Barenboim, conductor"
REM DATE 1991
INDEX 01 20:56:10
TRACK 06 AUDIO
TITLE "«Don Quixote», Op. 35: Variation 5"
PERFORMER "Chicago Symphony Orchestra. Daniel Barenboim, conductor"
REM DATE 1991
INDEX 01 22:50:57
TRACK 07 AUDIO
TITLE "«Don Quixote», Op. 35: Variation 6"
PERFORMER "Chicago Symphony Orchestra. Daniel Barenboim, conductor"
REM DATE 1991
INDEX 01 27:18:42
TRACK 08 AUDIO
TITLE "«Don Quixote», Op. 35: Variation 7"
PERFORMER "Chicago Symphony Orchestra. Daniel Barenboim, conductor"
REM DATE 1991
INDEX 01 28:36:55
TRACK 09 AUDIO
TITLE "«Don Quixote», Op. 35: Variation 8"
PERFORMER "Chicago Symphony Orchestra. Daniel Barenboim, conductor"
REM DATE 1991
INDEX 01 30:07:22
TRACK 10 AUDIO
TITLE "«Don Quixote», Op. 35: Variation 9"
PERFORMER "Chicago Symphony Orchestra. Daniel Barenboim, conductor"
REM DATE 1991
INDEX 01 32:00:05
TRACK 11 AUDIO
TITLE "«Don Quixote», Op. 35: Variation 10"
PERFORMER "Chicago Symphony Orchestra. Daniel Barenboim, conductor"
REM DATE 1991
INDEX 01 33:11:02
TRACK 12 AUDIO
TITLE "«Don Juan», Op. 20"
PERFORMER "Chicago Symphony Orchestra. Daniel Barenboim, conductor"
REM DATE 1991
INDEX 00 43:37:52
INDEX 01 43:48:55

CD2

REM GENRE Classical
REM DATE 1990
REM DISCID 470EAD07
REM COMMENT ExactAudioCopy v1.0b3
PERFORMER "Daniel Barenboim"
TITLE "Richard Strauss • Gustav Mahler • Arnold Schoenberg (Chicago Symphony Orchestra, Daniel Barenboim)"
FILE "CD 2 - Strauss. Till Eulenspiegel, Ein Heldenleben.flac" WAVE
TRACK 01 AUDIO
TITLE "«Till Eugenspiegels lustige Streiche», Op. 28"
PERFORMER "Chicago Symphony Orchestra. Daniel Barenboim, conductor"
INDEX 01 00:00:00
TRACK 02 AUDIO
TITLE "«Ein Heldenleben», Op. 40: I. Der Held"
PERFORMER "Samuel Magad (violin), Chicago Symphony Orchestra. Daniel Barenboim, conductor"
INDEX 01 15:32:33
TRACK 03 AUDIO
TITLE "«Ein Heldenleben», Op. 40: II. Des Helden Widersacher"
PERFORMER "Samuel Magad (violin), Chicago Symphony Orchestra. Daniel Barenboim, conductor"
INDEX 01 19:52:23
TRACK 04 AUDIO
TITLE "«Ein Heldenleben», Op. 40: III. Des Helden Gefährtin"
PERFORMER "Samuel Magad (violin), Chicago Symphony Orchestra. Daniel Barenboim, conductor"
INDEX 01 23:40:06
TRACK 05 AUDIO
TITLE "«Ein Heldenleben», Op. 40: IV. Des Helden Walstatt"
PERFORMER "Samuel Magad (violin), Chicago Symphony Orchestra. Daniel Barenboim, conductor"
INDEX 01 36:52:61
TRACK 06 AUDIO
TITLE "«Ein Heldenleben», Op. 40: V. Des Helden Friedenswerke"
PERFORMER "Samuel Magad (violin), Chicago Symphony Orchestra. Daniel Barenboim, conductor"
INDEX 01 43:49:38
TRACK 07 AUDIO
TITLE "«Ein Heldenleben», Op. 40: VI. Des Helden Weltflucht und Vollendung"
PERFORMER "Samuel Magad (violin), Chicago Symphony Orchestra. Daniel Barenboim, conductor"
INDEX 01 50:30:68

CD3

TITLE "Richard Strauss • Gustav Mahler • Arnold Schoenberg (Chicago Symphony Orchestra, Daniel Barenboim)"
PERFORMER "Daniel Barenboim"
REM GENRE Classical
REM DISCID 4A10A616
REM COMMENT "ExactAudioCopy v1.0b3"
FILE "CD 3 - Strauss. Eine Alpensinfonie, Fantasie aus ''Die Frau ohne Schatten''.flac" WAVE
TRACK 01 AUDIO
TITLE "Eine Alpensinfonie, Op. 64: Nacht"
PERFORMER "Chicago Symphony Orchestra. Daniel Barenboim, conductor"
REM DATE 1992
INDEX 01 00:00:00
TRACK 02 AUDIO
TITLE "Eine Alpensinfonie, Op. 64: Sonnenaufgang"
PERFORMER "Chicago Symphony Orchestra. Daniel Barenboim, conductor"
REM DATE 1992
INDEX 01 03:27:44
TRACK 03 AUDIO
TITLE "Eine Alpensinfonie, Op. 64: Der Anstieg"
PERFORMER "Chicago Symphony Orchestra. Daniel Barenboim, conductor"
REM DATE 1992
INDEX 01 05:01:68
TRACK 04 AUDIO
TITLE "Eine Alpensinfonie, Op. 64: Eintritt in der Wald, Wanderung neben dem Bach"
PERFORMER "Chicago Symphony Orchestra. Daniel Barenboim, conductor"
REM DATE 1992
INDEX 01 07:15:56
TRACK 05 AUDIO
TITLE "Eine Alpensinfonie, Op. 64: Am Wasserfall"
PERFORMER "Chicago Symphony Orchestra. Daniel Barenboim, conductor"
REM DATE 1992
INDEX 01 12:53:62
TRACK 06 AUDIO
TITLE "Eine Alpensinfonie, Op. 64: Erscheinung"
PERFORMER "Chicago Symphony Orchestra. Daniel Barenboim, conductor"
REM DATE 1992
INDEX 01 13:07:64
TRACK 07 AUDIO
TITLE "Eine Alpensinfonie, Op. 64: Auf blumigen Wiesen"
PERFORMER "Chicago Symphony Orchestra. Daniel Barenboim, conductor"
REM DATE 1992
INDEX 01 13:54:01
TRACK 08 AUDIO
TITLE "Eine Alpensinfonie, Op. 64: Auf der Alm"
PERFORMER "Chicago Symphony Orchestra. Daniel Barenboim, conductor"
REM DATE 1992
INDEX 01 14:50:71
TRACK 09 AUDIO
TITLE "Eine Alpensinfonie, Op. 64: Durch Dickicht und Gestrüpp auf Irrwegen"
PERFORMER "Chicago Symphony Orchestra. Daniel Barenboim, conductor"
REM DATE 1992
INDEX 01 16:55:03
TRACK 10 AUDIO
TITLE "Eine Alpensinfonie, Op. 64: Auf dem Gletscher"
PERFORMER "Chicago Symphony Orchestra. Daniel Barenboim, conductor"
REM DATE 1992
INDEX 01 18:25:55
TRACK 11 AUDIO
TITLE "Eine Alpensinfonie, Op. 64: Gefahrvolle Augenblicke"
PERFORMER "Chicago Symphony Orchestra. Daniel Barenboim, conductor"
REM DATE 1992
INDEX 01 19:27:72
TRACK 12 AUDIO
TITLE "Eine Alpensinfonie, Op. 64: Auf dem Gipfel"
PERFORMER "Chicago Symphony Orchestra. Daniel Barenboim, conductor"
REM DATE 1992
INDEX 01 20:50:68
TRACK 13 AUDIO
TITLE "Eine Alpensinfonie, Op. 64: Vision"
PERFORMER "Chicago Symphony Orchestra. Daniel Barenboim, conductor"
REM DATE 1992
INDEX 01 25:23:26
TRACK 14 AUDIO
TITLE "Eine Alpensinfonie, Op. 64: Nebel steigen auf"
PERFORMER "Chicago Symphony Orchestra. Daniel Barenboim, conductor"
REM DATE 1992
INDEX 01 28:21:07
TRACK 15 AUDIO
TITLE "Eine Alpensinfonie, Op. 64: Die Sonne verdüstert sich allmählich"
PERFORMER "Chicago Symphony Orchestra. Daniel Barenboim, conductor"
REM DATE 1992
INDEX 01 28:42:21
TRACK 16 AUDIO
TITLE "Eine Alpensinfonie, Op. 64: Elegie"
PERFORMER "Chicago Symphony Orchestra. Daniel Barenboim, conductor"
REM DATE 1992
INDEX 01 29:33:41
TRACK 17 AUDIO
TITLE "Eine Alpensinfonie, Op. 64: Stille von der Sturm"
PERFORMER "Chicago Symphony Orchestra. Daniel Barenboim, conductor"
REM DATE 1992
INDEX 01 31:26:60
TRACK 18 AUDIO
TITLE "Eine Alpensinfonie, Op. 64: Gewitter und Sturm, Abstieg"
PERFORMER "Chicago Symphony Orchestra. Daniel Barenboim, conductor"
REM DATE 1992
INDEX 01 34:14:37
TRACK 19 AUDIO
TITLE "Eine Alpensinfonie, Op. 64: Sonnenuntergang"
PERFORMER "Chicago Symphony Orchestra. Daniel Barenboim, conductor"
REM DATE 1992
INDEX 01 38:14:58
TRACK 20 AUDIO
TITLE "Eine Alpensinfonie, Op. 64: Ausklang"
PERFORMER "Chicago Symphony Orchestra. Daniel Barenboim, conductor"
REM DATE 1992
INDEX 01 40:38:65
TRACK 21 AUDIO
TITLE "Eine Alpensinfonie, Op. 64: Nacht"
PERFORMER "Chicago Symphony Orchestra. Daniel Barenboim, conductor"
REM DATE 1992
INDEX 01 47:07:10
TRACK 22 AUDIO
TITLE "Sinfonische Fantasie aus «Die Frau ohne Schatten»"
PERFORMER "Chicago Symphony Orchestra. Daniel Barenboim, conductor"
REM DATE 1992
INDEX 01 49:45:22

CD4-CD6 etc...

DOWNLOAD

Linkcrypt.ws // Captx



[Rock] Mittelalter Party Vol 4 (2012)