[Metal] Varg - Wolfskult [Limited Edition] (2011) - FLAC

Varg - Wolfskult|FLAC

Info:
Format: FLAC
Quelle: CD
Qualität: Verlustfrei | 44,1KHz | Stereo
Größe: Ca 588 Mb
Genre: Pagan Metal/Black Metal
Label: Noiseart Records
Release-Datum: 04.03.11
Tracks: CD1 - 10 | CD2 - 7 (+Hidden Tracks)
Encoder: FLAC reference libFLAC 1.3.1 20141125
Logdatei: [x] JA | [] NEIN

CD1:

Exact Audio Copy V1.0 beta 6 from 9. April 2015

EAC extraction logfile from 25. June 2015, 17:28

Varg / Wolfskult

Used drive : DTSOFT BDROM Adapter: 1 ID: 1

Read mode : Secure
Utilize accurate stream : Yes
Defeat audio cache : No
Make use of C2 pointers : No

Combined read/write offset correction : 0
Overread into Lead-In and Lead-Out : No
Fill up missing offset samples with silence : Yes
Delete leading and trailing silent blocks : No
Null samples used in CRC calculations : Yes
Used interface : Native Win32 interface for Win NT & 2000
Gap handling : Not detected, thus appended to previous track

Used output format : User Defined Encoder
Selected bitrate : 1024 kBit/s
Quality : High
Add ID3 tag : Yes
Command line compressor : E:\Sicherheitskopien\Flacs Rippen\Exact Audio Copy\Flac\flac-1.3.1-win\win64\flac.exe

TOC of the extracted CD

Track | Start | Length | Start sector | End sector
---------------------------------------------------------
1 | 0:00.00 | 1:37.65 | 0 | 7339
2 | 1:37.65 | 4:40.66 | 7340 | 28405
3 | 6:18.56 | 4:51.09 | 28406 | 50239
4 | 11:09.65 | 4:12.11 | 50240 | 69150
5 | 15:22.01 | 4:38.60 | 69151 | 90060
6 | 20:00.61 | 4:09.70 | 90061 | 108805
7 | 24:10.56 | 4:51.69 | 108806 | 130699
8 | 29:02.50 | 5:27.51 | 130700 | 155275
9 | 34:30.26 | 9:54.01 | 155276 | 199826
10 | 44:24.27 | 5:20.25 | 199827 | 223851

Track 1

Filename C:\Users\Public\Music\Varg-Wolfskult-Limited(2011)_Ripped_by_BetterLifeForfree\CD1\01 Jagd.wav

Peak level 100.0 %
Extraction speed 47.8 X
Track quality 100.0 %
Copy CRC 4371717A
Copy OK

Track 2

Filename C:\Users\Public\Music\Varg-Wolfskult-Limited(2011)_Ripped_by_BetterLifeForfree\CD1\02 Wir sind die Wölfe.wav

Peak level 99.7 %
Extraction speed 52.0 X
Track quality 99.9 %
Copy CRC 1875BE6E
Copy OK

Track 3

Filename C:\Users\Public\Music\Varg-Wolfskult-Limited(2011)_Ripped_by_BetterLifeForfree\CD1\03 Schwertzeit.wav

Peak level 99.7 %
Extraction speed 47.9 X
Track quality 100.0 %
Copy CRC 680C7067
Copy OK

Track 4

Filename C:\Users\Public\Music\Varg-Wolfskult-Limited(2011)_Ripped_by_BetterLifeForfree\CD1\04 Wolfskult.wav

Peak level 99.8 %
Extraction speed 20.2 X
Track quality 100.0 %
Copy CRC 0C32ADFA
Copy OK

Track 5

Filename C:\Users\Public\Music\Varg-Wolfskult-Limited(2011)_Ripped_by_BetterLifeForfree\CD1\05 Nagelfar.wav

Peak level 99.7 %
Extraction speed 35.0 X
Track quality 100.0 %
Copy CRC AF455D80
Copy OK

Track 6

Filename C:\Users\Public\Music\Varg-Wolfskult-Limited(2011)_Ripped_by_BetterLifeForfree\CD1\06 Glorreiche Tage.wav

Peak level 99.8 %
Extraction speed 29.6 X
Track quality 100.0 %
Copy CRC 9E8C3403
Copy OK

Track 7

Filename C:\Users\Public\Music\Varg-Wolfskult-Limited(2011)_Ripped_by_BetterLifeForfree\CD1\07 Phönix.wav

Peak level 99.8 %
Extraction speed 42.1 X
Track quality 100.0 %
Copy CRC 69B08A47
Copy OK

Track 8

Filename C:\Users\Public\Music\Varg-Wolfskult-Limited(2011)_Ripped_by_BetterLifeForfree\CD1\08 Blutdienst III.wav

Peak level 99.8 %
Extraction speed 36.0 X
Track quality 99.9 %
Copy CRC C55CCA84
Copy OK

Track 9

Filename C:\Users\Public\Music\Varg-Wolfskult-Limited(2011)_Ripped_by_BetterLifeForfree\CD1\09 Sehnsucht.wav

Peak level 99.8 %
Extraction speed 36.2 X
Track quality 100.0 %
Copy CRC 55C63E99
Copy OK

Track 10

Filename C:\Users\Public\Music\Varg-Wolfskult-Limited(2011)_Ripped_by_BetterLifeForfree\CD1\10 Glutsturm.wav

Peak level 99.7 %
Extraction speed 40.4 X
Track quality 100.0 %
Copy CRC FF065F2D
Copy OK

No errors occurred

End of status report

---- CUETools DB Plugin V2.1.6

[CTDB TOCID: H9QHQiJ0pDTaCPgZ07XjnbFOCvM-] found
Submit result: unrecognized or virtual drive
Track | CTDB Status
1 | (7/7) Accurately ripped
2 | (7/7) Accurately ripped
3 | (7/7) Accurately ripped
4 | (7/7) Accurately ripped
5 | (7/7) Accurately ripped
6 | (7/7) Accurately ripped
7 | (7/7) Accurately ripped
8 | (7/7) Accurately ripped
9 | (7/7) Accurately ripped
10 | (7/7) Accurately ripped

------------------------------------------------------------

Exact Audio Copy V1.0 beta 6 from 9. April 2015

EAC extraction logfile from 25. June 2015, 17:28

Varg / Wolfskult

Used drive : DTSOFT BDROM Adapter: 1 ID: 1

Read mode : Secure
Utilize accurate stream : Yes
Defeat audio cache : No
Make use of C2 pointers : No

Combined read/write offset correction : 0
Overread into Lead-In and Lead-Out : No
Fill up missing offset samples with silence : Yes
Delete leading and trailing silent blocks : No
Null samples used in CRC calculations : Yes
Used interface : Native Win32 interface for Win NT & 2000
Gap handling : Not detected, thus appended to previous track

Used output format : User Defined Encoder
Selected bitrate : 1024 kBit/s
Quality : High
Add ID3 tag : Yes
Command line compressor : E:\Sicherheitskopien\Flacs Rippen\Exact Audio Copy\Flac\flac-1.3.1-win\win64\flac.exe

TOC of the extracted CD

Track | Start | Length | Start sector | End sector
---------------------------------------------------------
1 | 0:00.00 | 1:37.65 | 0 | 7339
2 | 1:37.65 | 4:40.66 | 7340 | 28405
3 | 6:18.56 | 4:51.09 | 28406 | 50239
4 | 11:09.65 | 4:12.11 | 50240 | 69150
5 | 15:22.01 | 4:38.60 | 69151 | 90060
6 | 20:00.61 | 4:09.70 | 90061 | 108805
7 | 24:10.56 | 4:51.69 | 108806 | 130699
8 | 29:02.50 | 5:27.51 | 130700 | 155275
9 | 34:30.26 | 9:54.01 | 155276 | 199826
10 | 44:24.27 | 5:20.25 | 199827 | 223851

Track 1

Filename C:\Users\Public\Music\Varg-Wolfskult-Limited(2011)_Ripped_by_BetterLifeForfree\CD1\01 Jagd.wav

Peak level 100.0 %
Extraction speed 47.8 X
Track quality 100.0 %
Copy CRC 4371717A
Copy OK

Track 2

Filename C:\Users\Public\Music\Varg-Wolfskult-Limited(2011)_Ripped_by_BetterLifeForfree\CD1\02 Wir sind die Wölfe.wav

Peak level 99.7 %
Extraction speed 52.0 X
Track quality 99.9 %
Copy CRC 1875BE6E
Copy OK

Track 3

Filename C:\Users\Public\Music\Varg-Wolfskult-Limited(2011)_Ripped_by_BetterLifeForfree\CD1\03 Schwertzeit.wav

Peak level 99.7 %
Extraction speed 47.9 X
Track quality 100.0 %
Copy CRC 680C7067
Copy OK

Track 4

Filename C:\Users\Public\Music\Varg-Wolfskult-Limited(2011)_Ripped_by_BetterLifeForfree\CD1\04 Wolfskult.wav

Peak level 99.8 %
Extraction speed 20.2 X
Track quality 100.0 %
Copy CRC 0C32ADFA
Copy OK

Track 5

Filename C:\Users\Public\Music\Varg-Wolfskult-Limited(2011)_Ripped_by_BetterLifeForfree\CD1\05 Nagelfar.wav

Peak level 99.7 %
Extraction speed 35.0 X
Track quality 100.0 %
Copy CRC AF455D80
Copy OK

Track 6

Filename C:\Users\Public\Music\Varg-Wolfskult-Limited(2011)_Ripped_by_BetterLifeForfree\CD1\06 Glorreiche Tage.wav

Peak level 99.8 %
Extraction speed 29.6 X
Track quality 100.0 %
Copy CRC 9E8C3403
Copy OK

Track 7

Filename C:\Users\Public\Music\Varg-Wolfskult-Limited(2011)_Ripped_by_BetterLifeForfree\CD1\07 Phönix.wav

Peak level 99.8 %
Extraction speed 42.1 X
Track quality 100.0 %
Copy CRC 69B08A47
Copy OK

Track 8

Filename C:\Users\Public\Music\Varg-Wolfskult-Limited(2011)_Ripped_by_BetterLifeForfree\CD1\08 Blutdienst III.wav

Peak level 99.8 %
Extraction speed 36.0 X
Track quality 99.9 %
Copy CRC C55CCA84
Copy OK

Track 9

Filename C:\Users\Public\Music\Varg-Wolfskult-Limited(2011)_Ripped_by_BetterLifeForfree\CD1\09 Sehnsucht.wav

Peak level 99.8 %
Extraction speed 36.2 X
Track quality 100.0 %
Copy CRC 55C63E99
Copy OK

Track 10

Filename C:\Users\Public\Music\Varg-Wolfskult-Limited(2011)_Ripped_by_BetterLifeForfree\CD1\10 Glutsturm.wav

Peak level 99.7 %
Extraction speed 40.4 X
Track quality 100.0 %
Copy CRC FF065F2D
Copy OK

No errors occurred

End of status report

---- CUETools DB Plugin V2.1.6

[CTDB TOCID: H9QHQiJ0pDTaCPgZ07XjnbFOCvM-] found
Submit result: unrecognized or virtual drive
Track | CTDB Status
1 | (7/7) Accurately ripped
2 | (7/7) Accurately ripped
3 | (7/7) Accurately ripped
4 | (7/7) Accurately ripped
5 | (7/7) Accurately ripped
6 | (7/7) Accurately ripped
7 | (7/7) Accurately ripped
8 | (7/7) Accurately ripped
9 | (7/7) Accurately ripped
10 | (7/7) Accurately ripped

CD2

Exact Audio Copy V1.0 beta 6 from 9. April 2015

EAC extraction logfile from 25. June 2015, 17:42

Varg / Wolfskult

Used drive : DTSOFT BDROM Adapter: 1 ID: 1

Read mode : Secure
Utilize accurate stream : Yes
Defeat audio cache : No
Make use of C2 pointers : No

Combined read/write offset correction : 0
Overread into Lead-In and Lead-Out : No
Fill up missing offset samples with silence : Yes
Delete leading and trailing silent blocks : No
Null samples used in CRC calculations : Yes
Used interface : Native Win32 interface for Win NT & 2000
Gap handling : Not detected, thus appended to previous track

Used output format : User Defined Encoder
Selected bitrate : 1024 kBit/s
Quality : High
Add ID3 tag : Yes
Command line compressor : E:\Sicherheitskopien\Flacs Rippen\Exact Audio Copy\Flac\flac-1.3.1-win\win64\flac.exe

TOC of the extracted CD

Track | Start | Length | Start sector | End sector
---------------------------------------------------------
1 | 0:00.00 | 4:24.06 | 0 | 19805
2 | 4:24.06 | 4:07.44 | 19806 | 38374
3 | 8:31.50 | 4:07.06 | 38375 | 56905
4 | 12:38.56 | 3:41.18 | 56906 | 73498
5 | 16:19.74 | 2:55.66 | 73499 | 86689
6 | 19:15.65 | 2:38.36 | 86690 | 98575
7 | 21:54.26 | 3:37.19 | 98576 | 114869
8 | 25:31.45 | 0:13.00 | 114870 | 115844
9 | 25:44.45 | 0:13.00 | 115845 | 116819
10 | 25:57.45 | 0:13.00 | 116820 | 117794
11 | 26:10.45 | 2:44.14 | 117795 | 130108

Track 1

Filename C:\Users\Public\Music\Varg-Wolfskult-Limited(2011)_Ripped_by_BetterLifeForfree\CD2\01 Rotkäppchen.wav

Peak level 99.8 %
Extraction speed 40.9 X
Track quality 100.0 %
Copy CRC 6757B824
Copy OK

Track 2

Filename C:\Users\Public\Music\Varg-Wolfskult-Limited(2011)_Ripped_by_BetterLifeForfree\CD2\02 Aus der Asche ins Licht.wav

Peak level 99.8 %
Extraction speed 31.8 X
Track quality 100.0 %
Copy CRC E1383E28
Copy OK

Track 3

Filename C:\Users\Public\Music\Varg-Wolfskult-Limited(2011)_Ripped_by_BetterLifeForfree\CD2\03 Helden der Nacht.wav

Peak level 99.7 %
Extraction speed 28.5 X
Track quality 100.0 %
Copy CRC 8EC9E3D1
Copy OK

Track 4

Filename C:\Users\Public\Music\Varg-Wolfskult-Limited(2011)_Ripped_by_BetterLifeForfree\CD2\04 Nichts zu fürchten.wav

Peak level 99.7 %
Extraction speed 23.0 X
Track quality 100.0 %
Copy CRC B26073DC
Copy OK

Track 5

Filename C:\Users\Public\Music\Varg-Wolfskult-Limited(2011)_Ripped_by_BetterLifeForfree\CD2\05 Urd.wav

Peak level 93.5 %
Extraction speed 32.1 X
Track quality 100.0 %
Copy CRC 699BA7E5
Copy OK

Track 6

Filename C:\Users\Public\Music\Varg-Wolfskult-Limited(2011)_Ripped_by_BetterLifeForfree\CD2\06 Verdandi.wav

Peak level 94.7 %
Extraction speed 24.7 X
Track quality 100.0 %
Copy CRC 5ED16E17
Copy OK

Track 7

Filename C:\Users\Public\Music\Varg-Wolfskult-Limited(2011)_Ripped_by_BetterLifeForfree\CD2\07 Skuld.wav

Peak level 94.8 %
Extraction speed 30.3 X
Track quality 100.0 %
Copy CRC 88F56566
Copy OK

Track 8

Filename C:\Users\Public\Music\Varg-Wolfskult-Limited(2011)_Ripped_by_BetterLifeForfree\CD2\08 [silence].wav

Peak level 0.0 %
Extraction speed 75.9 X
Track quality 100.0 %
Copy CRC EEA205CE
Copy OK

Track 9

Filename C:\Users\Public\Music\Varg-Wolfskult-Limited(2011)_Ripped_by_BetterLifeForfree\CD2\09 [silence].wav

Peak level 0.0 %
Extraction speed 76.8 X
Track quality 100.0 %
Copy CRC EEA205CE
Copy OK

Track 10

Filename C:\Users\Public\Music\Varg-Wolfskult-Limited(2011)_Ripped_by_BetterLifeForfree\CD2\10 [silence].wav

Peak level 0.0 %
Extraction speed 46.5 X
Track quality 100.0 %
Copy CRC 6A860D7A
Copy OK

Track 11

Filename C:\Users\Public\Music\Varg-Wolfskult-Limited(2011)_Ripped_by_BetterLifeForfree\CD2\11 Die Nacht war lang.wav

Peak level 99.8 %
Extraction speed 7.6 X
Track quality 100.0 %
Copy CRC 0B5463BF
Copy OK

No errors occurred

End of status report

---- CUETools DB Plugin V2.1.6

[CTDB TOCID: 0_VN2NgMlR7eyTaSCqdzI1iug_U-] found
Submit result: unrecognized or virtual drive
Track | CTDB Status
1 | (4/4) Accurately ripped
2 | (4/4) Accurately ripped
3 | (4/4) Accurately ripped
4 | (4/4) Accurately ripped
5 | (4/4) Accurately ripped
6 | (4/4) Accurately ripped
7 | (4/4) Accurately ripped
8 | (4/4) Accurately ripped
9 | (4/4) Accurately ripped
10 | (4/4) Accurately ripped
11 | (4/4) Accurately ripped

------------------------------------------------------------

Exact Audio Copy V1.0 beta 6 from 9. April 2015

EAC extraction logfile from 25. June 2015, 17:42

Varg / Wolfskult

Used drive : DTSOFT BDROM Adapter: 1 ID: 1

Read mode : Secure
Utilize accurate stream : Yes
Defeat audio cache : No
Make use of C2 pointers : No

Combined read/write offset correction : 0
Overread into Lead-In and Lead-Out : No
Fill up missing offset samples with silence : Yes
Delete leading and trailing silent blocks : No
Null samples used in CRC calculations : Yes
Used interface : Native Win32 interface for Win NT & 2000
Gap handling : Not detected, thus appended to previous track

Used output format : User Defined Encoder
Selected bitrate : 1024 kBit/s
Quality : High
Add ID3 tag : Yes
Command line compressor : E:\Sicherheitskopien\Flacs Rippen\Exact Audio Copy\Flac\flac-1.3.1-win\win64\flac.exe

TOC of the extracted CD

Track | Start | Length | Start sector | End sector
---------------------------------------------------------
1 | 0:00.00 | 4:24.06 | 0 | 19805
2 | 4:24.06 | 4:07.44 | 19806 | 38374
3 | 8:31.50 | 4:07.06 | 38375 | 56905
4 | 12:38.56 | 3:41.18 | 56906 | 73498
5 | 16:19.74 | 2:55.66 | 73499 | 86689
6 | 19:15.65 | 2:38.36 | 86690 | 98575
7 | 21:54.26 | 3:37.19 | 98576 | 114869
8 | 25:31.45 | 0:13.00 | 114870 | 115844
9 | 25:44.45 | 0:13.00 | 115845 | 116819
10 | 25:57.45 | 0:13.00 | 116820 | 117794
11 | 26:10.45 | 2:44.14 | 117795 | 130108

Track 1

Filename C:\Users\Public\Music\Varg-Wolfskult-Limited(2011)_Ripped_by_BetterLifeForfree\CD2\01 Rotkäppchen.wav

Peak level 99.8 %
Extraction speed 40.9 X
Track quality 100.0 %
Copy CRC 6757B824
Copy OK

Track 2

Filename C:\Users\Public\Music\Varg-Wolfskult-Limited(2011)_Ripped_by_BetterLifeForfree\CD2\02 Aus der Asche ins Licht.wav

Peak level 99.8 %
Extraction speed 31.8 X
Track quality 100.0 %
Copy CRC E1383E28
Copy OK

Track 3

Filename C:\Users\Public\Music\Varg-Wolfskult-Limited(2011)_Ripped_by_BetterLifeForfree\CD2\03 Helden der Nacht.wav

Peak level 99.7 %
Extraction speed 28.5 X
Track quality 100.0 %
Copy CRC 8EC9E3D1
Copy OK

Track 4

Filename C:\Users\Public\Music\Varg-Wolfskult-Limited(2011)_Ripped_by_BetterLifeForfree\CD2\04 Nichts zu fürchten.wav

Peak level 99.7 %
Extraction speed 23.0 X
Track quality 100.0 %
Copy CRC B26073DC
Copy OK

Track 5

Filename C:\Users\Public\Music\Varg-Wolfskult-Limited(2011)_Ripped_by_BetterLifeForfree\CD2\05 Urd.wav

Peak level 93.5 %
Extraction speed 32.1 X
Track quality 100.0 %
Copy CRC 699BA7E5
Copy OK

Track 6

Filename C:\Users\Public\Music\Varg-Wolfskult-Limited(2011)_Ripped_by_BetterLifeForfree\CD2\06 Verdandi.wav

Peak level 94.7 %
Extraction speed 24.7 X
Track quality 100.0 %
Copy CRC 5ED16E17
Copy OK

Track 7

Filename C:\Users\Public\Music\Varg-Wolfskult-Limited(2011)_Ripped_by_BetterLifeForfree\CD2\07 Skuld.wav

Peak level 94.8 %
Extraction speed 30.3 X
Track quality 100.0 %
Copy CRC 88F56566
Copy OK

Track 8

Filename C:\Users\Public\Music\Varg-Wolfskult-Limited(2011)_Ripped_by_BetterLifeForfree\CD2\08 [silence].wav

Peak level 0.0 %
Extraction speed 75.9 X
Track quality 100.0 %
Copy CRC EEA205CE
Copy OK

Track 9

Filename C:\Users\Public\Music\Varg-Wolfskult-Limited(2011)_Ripped_by_BetterLifeForfree\CD2\09 [silence].wav

Peak level 0.0 %
Extraction speed 76.8 X
Track quality 100.0 %
Copy CRC EEA205CE
Copy OK

Track 10

Filename C:\Users\Public\Music\Varg-Wolfskult-Limited(2011)_Ripped_by_BetterLifeForfree\CD2\10 [silence].wav

Peak level 0.0 %
Extraction speed 46.5 X
Track quality 100.0 %
Copy CRC 6A860D7A
Copy OK

Track 11

Filename C:\Users\Public\Music\Varg-Wolfskult-Limited(2011)_Ripped_by_BetterLifeForfree\CD2\11 Die Nacht war lang.wav

Peak level 99.8 %
Extraction speed 7.6 X
Track quality 100.0 %
Copy CRC 0B5463BF
Copy OK

No errors occurred

End of status report

---- CUETools DB Plugin V2.1.6

[CTDB TOCID: 0_VN2NgMlR7eyTaSCqdzI1iug_U-] found
Submit result: unrecognized or virtual drive
Track | CTDB Status
1 | (4/4) Accurately ripped
2 | (4/4) Accurately ripped
3 | (4/4) Accurately ripped
4 | (4/4) Accurately ripped
5 | (4/4) Accurately ripped
6 | (4/4) Accurately ripped
7 | (4/4) Accurately ripped
8 | (4/4) Accurately ripped
9 | (4/4) Accurately ripped
10 | (4/4) Accurately ripped
11 | (4/4) Accurately ripped

CUE-Datei: [x] JA | [] NEIN

CD1:

REM DATE 2011
REM DISCID 7C0BA80A
REM COMMENT "ExactAudioCopy v1.0b6"
PERFORMER "Varg"
TITLE "Wolfskult"
FILE "01 Jagd.flac" WAVE
TRACK 01 AUDIO
TITLE "Jagd"
PERFORMER "Varg"
INDEX 01 00:00:00
FILE "02 Wir sind die Wölfe.flac" WAVE
TRACK 02 AUDIO
TITLE "Wir sind die Wölfe"
PERFORMER "Varg"
INDEX 01 00:00:00
FILE "03 Schwertzeit.flac" WAVE
TRACK 03 AUDIO
TITLE "Schwertzeit"
PERFORMER "Varg"
INDEX 01 00:00:00
FILE "04 Wolfskult.flac" WAVE
TRACK 04 AUDIO
TITLE "Wolfskult"
PERFORMER "Varg"
INDEX 01 00:00:00
FILE "05 Nagelfar.flac" WAVE
TRACK 05 AUDIO
TITLE "Nagelfar"
PERFORMER "Varg"
INDEX 01 00:00:00
FILE "06 Glorreiche Tage.flac" WAVE
TRACK 06 AUDIO
TITLE "Glorreiche Tage"
PERFORMER "Varg"
INDEX 01 00:00:00
FILE "07 Phönix.flac" WAVE
TRACK 07 AUDIO
TITLE "Phönix"
PERFORMER "Varg"
INDEX 01 00:00:00
FILE "08 Blutdienst III.flac" WAVE
TRACK 08 AUDIO
TITLE "Blutdienst III"
PERFORMER "Varg"
INDEX 01 00:00:00
FILE "09 Sehnsucht.flac" WAVE
TRACK 09 AUDIO
TITLE "Sehnsucht"
PERFORMER "Varg"
INDEX 01 00:00:00
FILE "10 Glutsturm.flac" WAVE
TRACK 10 AUDIO
TITLE "Glutsturm"
PERFORMER "Varg"
INDEX 01 00:00:00

CD2:

REM DATE 2011
REM DISCID 9006C60B
REM COMMENT "ExactAudioCopy v1.0b6"
PERFORMER "Varg"
TITLE "Wolfskult"
FILE "01 Rotkäppchen.flac" WAVE
TRACK 01 AUDIO
TITLE "Rotkäppchen"
PERFORMER "Varg"
INDEX 01 00:00:00
TRACK 02 AUDIO
TITLE "Aus der Asche ins Licht"
PERFORMER "Varg"
INDEX 00 04:22:05
FILE "02 Aus der Asche ins Licht.flac" WAVE
INDEX 01 00:00:00
TRACK 03 AUDIO
TITLE "Helden der Nacht"
PERFORMER "Varg"
INDEX 00 04:05:44
FILE "03 Helden der Nacht.flac" WAVE
INDEX 01 00:00:00
TRACK 04 AUDIO
TITLE "Nichts zu fürchten"
PERFORMER "Varg"
INDEX 00 04:05:05
FILE "04 Nichts zu fürchten.flac" WAVE
INDEX 01 00:00:00
TRACK 05 AUDIO
TITLE "Urd"
PERFORMER "Varg"
INDEX 00 03:39:17
FILE "05 Urd.flac" WAVE
INDEX 01 00:00:00
TRACK 06 AUDIO
TITLE "Verdandi"
PERFORMER "Varg"
INDEX 00 02:53:66
FILE "06 Verdandi.flac" WAVE
INDEX 01 00:00:00
TRACK 07 AUDIO
TITLE "Skuld"
PERFORMER "Varg"
INDEX 00 02:36:36
FILE "07 Skuld.flac" WAVE
INDEX 01 00:00:00
TRACK 08 AUDIO
TITLE "[silence]"
PERFORMER "Varg"
INDEX 00 03:35:18
FILE "08 [silence].flac" WAVE
INDEX 01 00:00:00
TRACK 09 AUDIO
TITLE "[silence]"
PERFORMER "Varg"
INDEX 00 00:10:74
FILE "09 [silence].flac" WAVE
INDEX 01 00:00:00
TRACK 10 AUDIO
TITLE "[silence]"
PERFORMER "Varg"
INDEX 00 00:10:74
FILE "10 [silence].flac" WAVE
INDEX 01 00:00:00
TRACK 11 AUDIO
TITLE "Die Nacht war lang"
PERFORMER "Varg"
INDEX 00 00:10:74
FILE "11 Die Nacht war lang.flac" WAVE
INDEX 01 00:00:00

Cover: [] JA | [x] NEIN

Tracklist:

CD 1:
1. Jagd
2. Wir sind die Wölfe
3. Schwertzeit
4. Wolfskult
5. Naglfar
6. Glorreiche Tage
7. Phönix
8. Blutdienst III
9. Sehnsucht
10. Glutsturm

CD 2:
1. Rotkäppchen (feat. Anna Murphy / Eluveitie)
2. Aus der Asche ins Licht
3. Helden der Nacht
4. Nichts zu fürchten
5. Urd (Akkustikversion)
6. Verdandi (Wolfszeit Akkustikversion feat. Masha / Arkona)
7. Skuld (Skal Akkustikversion)
8. (Hidden Track)
9. (Hidden Track)
10. (Hidden Track)
11. Die Nacht war Lang (Hidden Track)

Download (Zippyshare)

Passwort:

BetterLife

------------------------------------------------------------
Varg-Songs sind NICHT politisch! Nur die Musik zählt!
Es ist eine Schande, dass eine so grandiose Band von so vielen faschistischen Idioten gehört wird!
------------------------------------------------------------
Wenn euch der Upload gefällt, würde ich mich über ein "Danke" freuen :thumbup:




[Sonstiges] The War On Drugs - Slave Ambient (2011)



Black Flags: The Rise of ISIS (Audiobook)


Matthew Halsall - On The Go - (Special Edition)



[Sonstiges] Super Hit - Collection 1973-2011


[Metal] VA - Power Metal Ballads 11 (2011)


[House] David Guetta - One More Love (2011)