[Adventure] Game of Thrones S03 GERMAN AC3 1080p BluRay x265 - w00t

Game.of.Thrones.S03.GERMAN.AC3.1080p.BluRay.x265-w00t

Wegen hoher Nachfrage versuchsweise mal ein Release in 1080p.
Qualitativ kaum von fünf mal so großen Dateien zu unterscheiden,
auch Dank des neuen x265-Codecs, der allerdings nicht von allen Geräten abgespielt werden kann.

Wenn ihr diese Hürde allerdings meistern könnt,
bekommt ihr wirklich sehr gute Qualität bei einer sehr geringen Größe.
Ich spreche hiermit also alle an, die wenig Speicherplatz und/oder eine langsame Internetleitung haben;
oder wer sich einfach mal davon überzeugen möchte,
dass man auch mit geringen Dateigrößen ein schönes Erlebnis haben kann.

Infos zum Release:

Zitat:

Game of Thrones / Staffel 03 / 10 Folgen / IMDb: 9,5
Folgen einzeln ladbar
Genre: Adventure / Drama / Fantasy

Format: .mkv
Laufzeit: ~51-63min.
Auflösung: 1920x1080
Video: ~1500-3100kbps
Audio: Deutsch AC3 5.1 448kbps
Größe: ~9,1GB gesamt / ~740-1230MB pro Folge

MediaInfo:

General
Unique ID : 204465894639623821782246549776374151390 (0x99D2B2EBB73ED9C48129145AD1D3B8DE)
Complete name : Game.of.Thrones.S03E01.Valar.Dohaeris.GERMAN.AC3.1 080p.BluRay.x265-w00t.mkv
Format : Matroska
Format version : Version 4 / Version 2
File size : 878 MiB
Duration : 54 min 31 s
Overall bit rate : 2 252 kb/s
Encoded date : UTC 2017-11-15 20:44:38
Writing application : mkvmerge v17.0.0 ('Be Ur Friend') 64-bit
Writing library : libebml v1.3.5 + libmatroska v1.4.8 / Lavf57.71.100

Video
ID : 1
Format : HEVC
Format/Info : High Efficiency Video Coding
Format profile : Main@L4@Main
Codec ID : V_MPEGH/ISO/HEVC
Duration : 54 min 31 s
Bit rate : 1 802 kb/s
Width : 1 920 pixels
Height : 1 080 pixels
Display aspect ratio : 16:9
Frame rate mode : Constant
Frame rate : 23.976 (24000/1001) FPS
Color space : YUV
Chroma subsampling : 4:2:0
Bit depth : 8 bits
Bits/(Pixel*Frame) : 0.036
Stream size : 703 MiB (80%)
Writing library : x265 2.1:[Windows][GCC 5.4.0][64 bit] 8bit
Encoding settings : wpp / ctu=64 / min-cu-size=8 / max-tu-size=32 / tu-intra-depth=1 / tu-inter-depth=1 / me=3 / subme=5 / merange=16 / no-rect / no-amp / max-merge=2 / temporal-mvp / early-skip / rskip / rdpenalty=0 / no-tskip / no-tskip-fast / strong-intra-smoothing / no-lossless / no-cu-lossless / no-constrained-intra / no-fast-intra / open-gop / no-temporal-layers / interlace=0 / keyint=250 / min-keyint=25 / scenecut=40 / rc-lookahead=40 / lookahead-slices=6 / bframes=3 / bframe-bias=0 / b-adapt=1 / ref=3 / limit-refs=3 / no-limit-modes / weightp / weightb / aq-mode=2 / qg-size=32 / aq-strength=1.00 / cbqpoffs=0 / crqpoffs=0 / rd=3 / psy-rd=1.00 / rdoq-level=0 / psy-rdoq=0.00 / log2-max-poc-lsb=8 / no-rd-refine / signhide / deblock=0:0 / sao / no-sao-non-deblock / b-pyramid / cutree / no-intra-refresh / rc=crf / crf=22.0 / qcomp=0.60 / qpmin=0 / qpmax=69 / qpstep=4 / ipratio=1.40 / pbratio=1.30
Default : Yes
Forced : No

Audio
ID : 2
Format : AC-3
Format/Info : Audio Coding 3
Format settings, Endianness : Big
Codec ID : A_AC3
Duration : 54 min 31 s
Bit rate mode : Constant
Bit rate : 448 kb/s
Channel(s) : 6 channels
Channel positions : Front: L C R, Side: L R, LFE
Sampling rate : 48.0 kHz
Frame rate : 31.250 FPS (1536 SPF)
Bit depth : 16 bits
Compression mode : Lossy
Delay relative to video : -126 ms
Stream size : 175 MiB (20%)
Language : German
Service kind : Complete Main
Default : Yes
Forced : No

Text
ID : 3
Format : UTF-8
Codec ID : S_TEXT/UTF8
Codec ID/Info : UTF-8 Plain Text
Duration : 3 min 10 s
Bit rate : 30 b/s
Count of elements : 22
Stream size : 715 Bytes (0%)
Title : Forced
Language : German
Default : Yes
Forced : No

Episodenübersicht:

Game.of.Thrones.S03E01.Valar.Dohaeris.GERMAN.AC3.1 080p.BluRay.x265-w00t
Game.of.Thrones.S03E02.Dunkle.Schwingen.Dunkle.Wor te.GERMAN.AC3.1080p.BluRay.x265-w00t
Game.of.Thrones.S03E03.Der.Weg.der.Zuechtigung.GER MAN.AC3.1080p.BluRay.x265-w00t
Game.of.Thrones.S03E04.Und.jetzt.ist.seine.Wache.z u.Ende.GERMAN.AC3.1080p.BluRay.x265-w00t
Game.of.Thrones.S03E05.Vom.Feuer.gekuesst.GERMAN.A C3.1080p.BluRay.x265-w00t
Game.of.Thrones.S03E06.Der.Aufstieg.GERMAN.AC3.108 0p.BluRay.x265-w00t
Game.of.Thrones.S03E07.Der.Baer.und.die.Jungfrau.H ehr.GERMAN.AC3.1080p.BluRay.x265-w00t
Game.of.Thrones.S03E08.Die.Zweitgeborenen.GERMAN.A C3.1080p.BluRay.x265-w00t
Game.of.Thrones.S03E09.Der.Regen.von.Castamaer.GER MAN.AC3.1080p.BluRay.x265-w00t
Game.of.Thrones.S03E10.Mhysa.GERMAN.AC3.1080p.BluR ay.x265-w00t

share-online.biz Download-Links:
http://relink.to/f/7c48dc8b5ae34b49c8b03f870d1cc6

Passwort:
w00t

Und weiter zu Game of Thrones --> Staffel 1 / --> Staffel 2 / --> Staffel 3
Weitere Staffeln und Serien folgen, wenn genug Interesse besteht.










Game Of Thrones S03 720P HDTV H264-ETRG