[Rnb] Bruno Mars - Doo-Wops & Hooligans (2010)

Tracklist:

01. Grenade [3:42]
02. Just the way you are [3:41]
03. Our first time [4:03]
04. Runaway baby [2:28]
05. The lazy song [3:16]
06. Marry you [3:50]
07. Talking to the moon [3:38]
08. Liquor store blues (feat. Damian Marley) [3:49]
09. Count on me [3:17]
10. The other side (feat. Cee Lo Green & B.o.B) [3:48]
11. Somewhere in Brooklyn [3:03]
12. Talking to the moon (Acoustic piano version) [3:38]

Log:

Exact Audio Copy V0.99 prebeta 5 from 4. May 2009

EAC extraction logfile from 8. March 2011, 13:57

Bruno Mars / Doo-Wops & Hooligans

Used drive : Optiarc DVD RW AD-5200A Adapter: 0 ID: 0

Read mode : Secure
Utilize accurate stream : Yes
Defeat audio cache : Yes
Make use of C2 pointers : No

Read offset correction : 48
Overread into Lead-In and Lead-Out : No
Fill up missing offset samples with silence : Yes
Delete leading and trailing silent blocks : No
Null samples used in CRC calculations : Yes
Used interface : Installed external ASPI interface
Gap handling : Appended to previous track

Used output format : User Defined Encoder
Selected bitrate : 320 kBit/s
Quality : High
Add ID3 tag : No
Command line compressor : C:\Program Files\Exact Audio Copy\Flac\flac.exe
Additional command line options : -8 -V -T "ARTIST=%a" -T "TITLE=%t" -T "ALBUM=%g" -T "DATE=%y" -T "TRACKNUMBER=%n" -T "GENRE=%m" -T "COMMENT=EAC FLAC -8" %s

TOC of the extracted CD

Track | Start | Length | Start sector | End sector
---------------------------------------------------------
1 | 0:00.00 | 3:42.07 | 0 | 16656
2 | 3:42.07 | 3:40.55 | 16657 | 33211
3 | 7:22.62 | 4:03.01 | 33212 | 51437
4 | 11:25.63 | 2:28.32 | 51438 | 62569
5 | 13:54.20 | 3:15.72 | 62570 | 77266
6 | 17:10.17 | 3:50.09 | 77267 | 94525
7 | 21:00.26 | 3:37.65 | 94526 | 110865
8 | 24:38.16 | 3:49.28 | 110866 | 128068
9 | 28:27.44 | 3:17.35 | 128069 | 142878
10 | 31:45.04 | 3:48.25 | 142879 | 160003
11 | 35:33.29 | 3:03.31 | 160004 | 173759
12 | 38:36.60 | 3:38.04 | 173760 | 190113

Track 1

Filename C:\Documents and Settings\Admin\Ìîè äîêóìåíòû\Ìîÿ ìóçûêà\Bruno Mars - Doo-Wops & Hooligans (European edition) (FLAC) [2010]\01. Grenade.wav

Pre-gap length 0:00:02.00

Peak level 100.0 %
Track quality 100.0 %
Test CRC E7D0C644
Copy CRC E7D0C644
Accurately ripped (confidence 17) [CFF7E345]
Copy OK

Track 2

Filename C:\Documents and Settings\Admin\Ìîè äîêóìåíòû\Ìîÿ ìóçûêà\Bruno Mars - Doo-Wops & Hooligans (European edition) (FLAC) [2010]\02. Just the way you are.wav

Peak level 100.0 %
Track quality 100.0 %
Test CRC 634512F0
Copy CRC 634512F0
Accurately ripped (confidence 17) [6C35D9B5]
Copy OK

Track 3

Filename C:\Documents and Settings\Admin\Ìîè äîêóìåíòû\Ìîÿ ìóçûêà\Bruno Mars - Doo-Wops & Hooligans (European edition) (FLAC) [2010]\03. Our first time.wav

Peak level 98.8 %
Track quality 100.0 %
Test CRC 05726F26
Copy CRC 05726F26
Accurately ripped (confidence 17) [59653218]
Copy OK

Track 4

Filename C:\Documents and Settings\Admin\Ìîè äîêóìåíòû\Ìîÿ ìóçûêà\Bruno Mars - Doo-Wops & Hooligans (European edition) (FLAC) [2010]\04. Runaway baby.wav

Peak level 100.0 %
Track quality 99.9 %
Test CRC 06FE2189
Copy CRC 06FE2189
Accurately ripped (confidence 16) [520152CB]
Copy OK

Track 5

Filename C:\Documents and Settings\Admin\Ìîè äîêóìåíòû\Ìîÿ ìóçûêà\Bruno Mars - Doo-Wops & Hooligans (European edition) (FLAC) [2010]\05. The lazy song.wav

Pre-gap length 0:00:00.68

Peak level 100.0 %
Track quality 100.0 %
Test CRC 2DBB17E5
Copy CRC 2DBB17E5
Accurately ripped (confidence 17) [C8FB1F5D]
Copy OK

Track 6

Filename C:\Documents and Settings\Admin\Ìîè äîêóìåíòû\Ìîÿ ìóçûêà\Bruno Mars - Doo-Wops & Hooligans (European edition) (FLAC) [2010]\06. Marry you.wav

Pre-gap length 0:00:00.38

Peak level 100.0 %
Track quality 99.9 %
Test CRC 9B1A61CE
Copy CRC 9B1A61CE
Accurately ripped (confidence 17) [1E83738F]
Copy OK

Track 7

Filename C:\Documents and Settings\Admin\Ìîè äîêóìåíòû\Ìîÿ ìóçûêà\Bruno Mars - Doo-Wops & Hooligans (European edition) (FLAC) [2010]\07. Talking to the moon.wav

Peak level 99.9 %
Track quality 100.0 %
Test CRC 9371219D
Copy CRC 9371219D
Accurately ripped (confidence 16) [B4FA34A7]
Copy OK

Track 8

Filename C:\Documents and Settings\Admin\Ìîè äîêóìåíòû\Ìîÿ ìóçûêà\Bruno Mars - Doo-Wops & Hooligans (European edition) (FLAC) [2010]\08. Liquor store blues (feat. Damian Marley).wav

Peak level 98.8 %
Track quality 100.0 %
Test CRC 01202693
Copy CRC 01202693
Accurately ripped (confidence 17) [63E2778A]
Copy OK

Track 9

Filename C:\Documents and Settings\Admin\Ìîè äîêóìåíòû\Ìîÿ ìóçûêà\Bruno Mars - Doo-Wops & Hooligans (European edition) (FLAC) [2010]\09. Count on me.wav

Peak level 100.0 %
Track quality 100.0 %
Test CRC 0A340EDE
Copy CRC 0A340EDE
Accurately ripped (confidence 17) [C2AA5536]
Copy OK

Track 10

Filename C:\Documents and Settings\Admin\Ìîè äîêóìåíòû\Ìîÿ ìóçûêà\Bruno Mars - Doo-Wops & Hooligans (European edition) (FLAC) [2010]\10. The other side (feat. Cee Lo Green & B.o.B).wav

Pre-gap length 0:00:00.09

Peak level 100.0 %
Track quality 100.0 %
Test CRC 11C30E8D
Copy CRC 11C30E8D
Accurately ripped (confidence 17) [D30037A8]
Copy OK

Track 11

Filename C:\Documents and Settings\Admin\Ìîè äîêóìåíòû\Ìîÿ ìóçûêà\Bruno Mars - Doo-Wops & Hooligans (European edition) (FLAC) [2010]\11. Somewhere in Brooklyn.wav

Pre-gap length 0:00:00.57

Peak level 100.0 %
Track quality 100.0 %
Test CRC DBADCEFC
Copy CRC DBADCEFC
Accurately ripped (confidence 17) [4D3A0896]
Copy OK

Track 12

Filename C:\Documents and Settings\Admin\Ìîè äîêóìåíòû\Ìîÿ ìóçûêà\Bruno Mars - Doo-Wops & Hooligans (European edition) (FLAC) [2010]\12. Talking to the moon (Acoustic piano version).wav

Pre-gap length 0:00:01.48

Peak level 100.0 %
Track quality 100.0 %
Test CRC 32EF94F7
Copy CRC 32EF94F7
Accurately ripped (confidence 17) [032E4320]
Copy OK

All tracks accurately ripped

No errors occurred

End of status report

Cue:

REM GENRE R&B/Soul
REM DATE 2010
REM DISCID 9509E60C
REM COMMENT "ExactAudioCopy v0.99pb5"
PERFORMER "Bruno Mars"
TITLE "Doo-Wops & Hooligans"
FILE "01. Grenade.wav" WAVE
TRACK 01 AUDIO
TITLE "Grenade"
PERFORMER "Bruno Mars"
INDEX 01 00:00:00
FILE "02. Just the way you are.wav" WAVE
TRACK 02 AUDIO
TITLE "Just the way you are"
PERFORMER "Bruno Mars"
INDEX 01 00:00:00
FILE "03. Our first time.wav" WAVE
TRACK 03 AUDIO
TITLE "Our first time"
PERFORMER "Bruno Mars"
INDEX 01 00:00:00
FILE "04. Runaway baby.wav" WAVE
TRACK 04 AUDIO
TITLE "Runaway baby"
PERFORMER "Bruno Mars"
INDEX 01 00:00:00
TRACK 05 AUDIO
TITLE "The lazy song"
PERFORMER "Bruno Mars"
INDEX 00 02:27:56
FILE "05. The lazy song.wav" WAVE
INDEX 01 00:00:00
TRACK 06 AUDIO
TITLE "Marry you"
PERFORMER "Bruno Mars"
INDEX 00 03:15:43
FILE "06. Marry you.wav" WAVE
INDEX 01 00:00:00
FILE "07. Talking to the moon.wav" WAVE
TRACK 07 AUDIO
TITLE "Talking to the moon"
PERFORMER "Bruno Mars"
INDEX 01 00:00:00
FILE "08. Liquor store blues (feat. Damian Marley).wav" WAVE
TRACK 08 AUDIO
TITLE "Liquor store blues (feat. Damian Marley)"
PERFORMER "Bruno Mars"
INDEX 01 00:00:00
FILE "09. Count on me.wav" WAVE
TRACK 09 AUDIO
TITLE "Count on me"
PERFORMER "Bruno Mars"
INDEX 01 00:00:00
TRACK 10 AUDIO
TITLE "The other side (feat. Cee Lo Green & B.o.B)"
PERFORMER "Bruno Mars"
INDEX 00 03:17:28
FILE "10. The other side (feat. Cee Lo Green & B.o.B).wav" WAVE
INDEX 01 00:00:00
TRACK 11 AUDIO
TITLE "Somewhere in Brooklyn"
PERFORMER "Bruno Mars"
INDEX 00 03:47:57
FILE "11. Somewhere in Brooklyn.wav" WAVE
INDEX 01 00:00:00
TRACK 12 AUDIO
TITLE "Talking to the moon (Acoustic piano version)"
PERFORMER "Bruno Mars"
INDEX 00 03:01:70
FILE "12. Talking to the moon (Acoustic piano version).wav" WAVE
INDEX 01 00:00:00

Format: FLAC
Bitrate: lossless
Größe: 285 MB

Download

Share-Online, Uploaded

http://relink.to/f/cbf54f88d47f740edf9a8012d98f58

Nur 1x gepackt, kein Passwort, Mirror kompatibel



VA - Billboard Top US Pop 40 (31 Mar 2013)



[Sonstiges] Cafe Del Mar - Ambience (2016)


[Sonstiges] Cafe Del Mar - Ibiza Classics 3 (2016)


VA - Cafe Del Mar Dreams Vol. 1-7 2000-2014





[Sonstiges] Now That's What I Call Chill (2012)