[Rock] The Golden Age Of American Rock 'n' Roll Vol.03 (1994)

Tracklist:

01. Bill Parsons - The All American Boy - (1958) [3:02]
02. Wilbert Harrison - Kansas City - (1959) [2:28]
03. Jack Scott - My True Love - (1958) [2:47]
04. Jan & Arnie - Jennie Lee - (1958) [2:05]
05. Billy Myles - The Joker - (1957) [2:39]
06. The Rockin' R's - The Beat - (1959) [2:52]
07. The Teddy Bears - To Know Him, Is To Love Him - (1958) [2:25]
08. The Turbans - When You Dance - (1955) [2:56]
09. Ketty Lester - Love Letters - (1962) [2:43]
10. The Kuf-Linx - So Touch - (1958) [2:23]
11. The Five Satins - To The Aisle - (1957) [2:46]
12. Billy & Lillie - La Dee Dah - (1958) [2:10]
13. Jody Reynolds - Endless Sleep - (1958) [2:24]
14. Tony Harris - Chicken, Baby, Chicken - (1957) [2:27]
15. The Blue Jays - Lover's Island - (1961) [2:19]
16. Gerry Granahan - No Chemise, Please - (1958) [2:32]
17. Skip & Flip - It Was I - (1959) [2:21]
18. The Tokens - Tonight I Fell In Love - (1961) [1:47]
19. Kathy Young & The Innocents - Happy Birthday Blues - (1961) [3:03]
20. Ray Smith - Rockin' Little Angel - (1960) [2:16]
21. The Mello-Kings - Tonite, Tonite - (1957) [2:34]
22. The Pets - Cha Hua Hua - (1958) [2:18]
23. The Olympics - Western Movies - (1958) [2:24]
24. The Cliques - The Girl In My Dreams - (1956) [3:01]
25. Jimmy Gilmer & The Fireballs - Sugar Shack - (1963) [2:04]
26. Big Jay McNeely & Band - There Is Something On Your Mind - (1959) [3:35]
27. Teddy & The Twilights - Woman Is A Man's Best Friend - (1962) [2:17]
28. The Castells - Sacred - (1961) [2:17]
29. Tony & Joe - The Freeze - (1958) [2:22]
30. Dick Doo & Don'ts - Click Clack - (1958) [2:26]

Log:

Exact Audio Copy V1.0 beta 3 from 29. August 2011

EAC extraction logfile from 27. October 2012, 11:47

Various Artists / The Golden Age Of American Rock 'n' Roll, Vol. 03

Used drive : PLEXTOR DVDR PX-716A Adapter: 2 ID: 0

Read mode : Secure
Utilize accurate stream : Yes
Defeat audio cache : Yes
Make use of C2 pointers : No

Read offset correction : 30
Overread into Lead-In and Lead-Out : No
Fill up missing offset samples with silence : Yes
Delete leading and trailing silent blocks : No
Null samples used in CRC calculations : Yes
Used interface : Native Win32 interface for Win NT & 2000

Used output format : User Defined Encoder
Selected bitrate : 896 kBit/s
Quality : High
Add ID3 tag : No
Command line compressor : C:\Program Files\Exact Audio Copy\wavpack.exe
Additional command line options : -hlm %source%

TOC of the extracted CD

Track | Start | Length | Start sector | End sector
---------------------------------------------------------
1 | 0:00.00 | 3:02.35 | 0 | 13684
2 | 3:02.35 | 2:28.02 | 13685 | 24786
3 | 5:30.37 | 2:47.35 | 24787 | 37346
4 | 8:17.72 | 2:04.50 | 37347 | 46696
5 | 10:22.47 | 2:39.00 | 46697 | 58621
6 | 13:01.47 | 2:51.40 | 58622 | 71486
7 | 15:53.12 | 2:25.30 | 71487 | 82391
8 | 18:18.42 | 2:55.40 | 82392 | 95556
9 | 21:14.07 | 2:42.73 | 95557 | 107779
10 | 23:57.05 | 2:23.32 | 107780 | 118536
11 | 26:20.37 | 2:45.68 | 118537 | 130979
12 | 29:06.30 | 2:10.30 | 130980 | 140759
13 | 31:16.60 | 2:23.62 | 140760 | 151546
14 | 33:40.47 | 2:26.63 | 151547 | 162559
15 | 36:07.35 | 2:19.02 | 162560 | 172986
16 | 38:26.37 | 2:32.23 | 172987 | 184409
17 | 40:58.60 | 2:21.27 | 184410 | 195011
18 | 43:20.12 | 1:47.03 | 195012 | 203039
19 | 45:07.15 | 3:02.52 | 203040 | 216741
20 | 48:09.67 | 2:15.48 | 216742 | 226914
21 | 50:25.40 | 2:33.45 | 226915 | 238434
22 | 52:59.10 | 2:17.65 | 238435 | 248774
23 | 55:17.00 | 2:24.17 | 248775 | 259591
24 | 57:41.17 | 3:01.10 | 259592 | 273176
25 | 60:42.27 | 2:04.23 | 273177 | 282499
26 | 62:46.50 | 3:35.02 | 282500 | 298626
27 | 66:21.52 | 2:17.03 | 298627 | 308904
28 | 68:38.55 | 2:16.55 | 308905 | 319159
29 | 70:55.35 | 2:21.40 | 319160 | 329774
30 | 73:17.00 | 2:25.57 | 329775 | 340706

Range status and errors

Selected range

Filename D:\wwphil\Various Artists - The Golden Age of American Rock 'n' Roll Vol. 03\Various Artists - The Golden Age Of American Rock 'n' Roll, Vol. 03.wav

Peak level 90.7 %
Extraction speed 3.7 X
Range quality 99.9 %
Test CRC 0A189B0A
Copy CRC 0A189B0A
Copy OK

No errors occurred

AccurateRip summary

Track 1 accurately ripped (confidence 2) [45AF1E84] (AR v2)
Track 2 accurately ripped (confidence 2) [5561400F] (AR v2)
Track 3 accurately ripped (confidence 2) [B8F24632] (AR v2)
Track 4 accurately ripped (confidence 2) [43BFDC59] (AR v2)
Track 5 accurately ripped (confidence 2) [A20563E8] (AR v2)
Track 6 accurately ripped (confidence 2) [6CB5BF26] (AR v2)
Track 7 accurately ripped (confidence 2) [3667AFF3] (AR v2)
Track 8 accurately ripped (confidence 2) [891C3D7F] (AR v2)
Track 9 accurately ripped (confidence 2) [67EF5925] (AR v2)
Track 10 accurately ripped (confidence 2) [C61E58ED] (AR v2)
Track 11 accurately ripped (confidence 2) [26E51FCA] (AR v2)
Track 12 accurately ripped (confidence 2) [15600068] (AR v2)
Track 13 accurately ripped (confidence 2) [D5494187] (AR v2)
Track 14 accurately ripped (confidence 2) [64E39C91] (AR v2)
Track 15 accurately ripped (confidence 2) [29CB4DA1] (AR v2)
Track 16 accurately ripped (confidence 2) [6628E174] (AR v2)
Track 17 accurately ripped (confidence 2) [BE84B3B3] (AR v2)
Track 18 accurately ripped (confidence 2) [BA80DA0C] (AR v2)
Track 19 accurately ripped (confidence 2) [48421D1A] (AR v2)
Track 20 accurately ripped (confidence 2) [6E9AC9C1] (AR v2)
Track 21 accurately ripped (confidence 2) [5E4A69FA] (AR v2)
Track 22 accurately ripped (confidence 2) [AF9E73F2] (AR v2)
Track 23 accurately ripped (confidence 2) [651FC52A] (AR v2)
Track 24 accurately ripped (confidence 2) [2F24EF93] (AR v2)
Track 25 accurately ripped (confidence 2) [CA8E1791] (AR v2)
Track 26 accurately ripped (confidence 2) [06E42886] (AR v2)
Track 27 accurately ripped (confidence 2) [F37FC3B8] (AR v2)
Track 28 accurately ripped (confidence 2) [D12F5EAE] (AR v2)
Track 29 accurately ripped (confidence 2) [4B3065E4] (AR v2)
Track 30 accurately ripped (confidence 2) [5F3B9C30] (AR v2)

All tracks accurately ripped

End of status report

==== Log checksum 28A24E973053AF4501B7973AE6090D99A9BFD6D9511ACBB0CD 4DED5BB846510D ====

Cue:

REM GENRE "Rock & Roll"
REM DATE 1994
REM DISCID CA11BE1E
REM COMMENT "ExactAudioCopy v1.0b3"
PERFORMER "Various Artists"
TITLE "The Golden Age Of American Rock 'n' Roll Vol. 03"
FILE "Various Artists - The Golden Age Of American Rock 'n' Roll Vol. 03.flac" WAVE
TRACK 01 AUDIO
TITLE "The All American Boy - (1958)"
PERFORMER "Bill Parsons"
INDEX 01 00:00:00
TRACK 02 AUDIO
TITLE "Kansas City - (1959)"
PERFORMER "Wilbert Harrison"
INDEX 00 02:59:12
INDEX 01 03:02:35
TRACK 03 AUDIO
TITLE "My True Love - (1958)"
PERFORMER "Jack Scott"
INDEX 00 05:28:02
INDEX 01 05:30:37
TRACK 04 AUDIO
TITLE "Jennie Lee - (1958)"
PERFORMER "Jan & Arnie"
INDEX 00 08:15:20
INDEX 01 08:17:72
TRACK 05 AUDIO
TITLE "The Joker - (1957)"
PERFORMER "Billy Myles"
INDEX 00 10:19:42
INDEX 01 10:22:47
TRACK 06 AUDIO
TITLE "The Beat - (1959)"
PERFORMER "The Rockin' R's"
INDEX 00 12:58:40
INDEX 01 13:01:47
TRACK 07 AUDIO
TITLE "To Know Him, Is To Love Him - (1958)"
PERFORMER "The Teddy Bears"
INDEX 00 15:50:25
INDEX 01 15:53:12
TRACK 08 AUDIO
TITLE "When You Dance - (1955)"
PERFORMER "The Turbans"
INDEX 00 18:15:40
INDEX 01 18:18:42
TRACK 09 AUDIO
TITLE "Love Letters - (1962)"
PERFORMER "Ketty Lester"
INDEX 00 21:11:15
INDEX 01 21:14:07
TRACK 10 AUDIO
TITLE "So Touch - (1958)"
PERFORMER "The Kuf-Linx"
INDEX 00 23:54:05
INDEX 01 23:57:05
TRACK 11 AUDIO
TITLE "To The Aisle - (1957)"
PERFORMER "The Five Satins"
INDEX 00 26:17:55
INDEX 01 26:20:37
TRACK 12 AUDIO
TITLE "La Dee Dah - (1958)"
PERFORMER "Billy & Lillie"
INDEX 00 29:02:60
INDEX 01 29:06:30
TRACK 13 AUDIO
TITLE "Endless Sleep - (1958)"
PERFORMER "Jody Reynolds"
INDEX 00 31:13:47
INDEX 01 31:16:60
TRACK 14 AUDIO
TITLE "Chicken, Baby, Chicken - (1957)"
PERFORMER "Tony Harris"
INDEX 00 33:37:02
INDEX 01 33:40:47
TRACK 15 AUDIO
TITLE "Lover's Island - (1961)"
PERFORMER "The Blue Jays"
INDEX 00 36:04:07
INDEX 01 36:07:35
TRACK 16 AUDIO
TITLE "No Chemise, Please - (1958)"
PERFORMER "Gerry Granahan"
INDEX 00 38:23:50
INDEX 01 38:26:37
TRACK 17 AUDIO
TITLE "It Was I - (1959)"
PERFORMER "Skip & Flip"
INDEX 00 40:55:47
INDEX 01 40:58:60
TRACK 18 AUDIO
TITLE "Tonight I Fell In Love - (1961)"
PERFORMER "The Tokens"
INDEX 00 43:17:30
INDEX 01 43:20:12
TRACK 19 AUDIO
TITLE "Happy Birthday Blues - (1961)"
PERFORMER "Kathy Young & The Innocents"
INDEX 00 45:04:12
INDEX 01 45:07:15
TRACK 20 AUDIO
TITLE "Rockin' Little Angel - (1960)"
PERFORMER "Ray Smith"
INDEX 00 48:06:62
INDEX 01 48:09:67
TRACK 21 AUDIO
TITLE "Tonite, Tonite - (1957)"
PERFORMER "The Mello-Kings"
INDEX 00 50:22:37
INDEX 01 50:25:40
TRACK 22 AUDIO
TITLE "Cha Hua Hua - (1958)"
PERFORMER "The Pets"
INDEX 00 52:55:65
INDEX 01 52:59:10
TRACK 23 AUDIO
TITLE "Western Movies - (1958)"
PERFORMER "The Olympics"
INDEX 00 55:14:17
INDEX 01 55:17:00
TRACK 24 AUDIO
TITLE "The Girl In My Dreams - (1956)"
PERFORMER "The Cliques"
INDEX 00 57:38:17
INDEX 01 57:41:17
TRACK 25 AUDIO
TITLE "Sugar Shack - (1963)"
PERFORMER "Jimmy Gilmer & The Fireballs"
INDEX 00 60:39:07
INDEX 01 60:42:27
TRACK 26 AUDIO
TITLE "There Is Something On Your Mind - (1959)"
PERFORMER "Big Jay McNeely & Band"
INDEX 00 62:43:57
INDEX 01 62:46:50
TRACK 27 AUDIO
TITLE "Woman Is A Man's Best Friend - (1962)"
PERFORMER "Teddy & The Twilights"
INDEX 00 66:18:70
INDEX 01 66:21:52
TRACK 28 AUDIO
TITLE "Sacred - (1961)"
PERFORMER "The Castells"
INDEX 00 68:35:12
INDEX 01 68:38:55
TRACK 29 AUDIO
TITLE "The Freeze - (1958)"
PERFORMER "Tony & Joe"
INDEX 00 70:52:57
INDEX 01 70:55:35
TRACK 30 AUDIO
TITLE "Click Clack - (1958)"
PERFORMER "Dick Doo & Don'ts"
INDEX 00 73:14:22
INDEX 01 73:17:00

Format: FLAC
Bitrate: lossless
Größe: 258 MB

Download

Share-Online, Uploaded

http://relink.to/f/7b99c2a78ab07e9cf7043155fbd169

Nur 1x gepackt, kein Passwort, Mirror kompatibel