Naruto Shippuuden 168 - XXX German Subbed AC3 720p HDTV x264 - TnF

Naruto Shippuuden 168 - 446 German Subbed AC3 720p HDTV x264 - TnF

-=Beschreibung=-

Zweieinhalb Jahre sind vergangen, seit Naruto mit Jiraiya zusammen Konoha verließ, um zu trainieren. Da Akatsuki allmählich aktiv wird und es nur eine Frage der Zeit ist, bis sie Naruto konfrontieren, kehren beide ins Dorf zurück. Den Blick immer Richtung Orochimaru und Sasuke gerichtet, planen Kakashi, Sakura und Naruto als "Team Kakashi" ihre weitere Vorgehensweise... bis Akatsuki den "Hidden Sand" überfällt und den Kazekage kidnappt.

-=Info=-

Größe: 84.0 GB
Episoden: 266
Spieldauer: 23 min
Auflösung: 720p
Format: mp4
Sprache: Japanisch
Untertitel: Deutsch

-=Mediainfo=-

General
Complete name : Naruto Shippuuden 168 - 446 German Subbed AC3 720p HDTV x264 - TnF\[TnF]Naruto_Shippuuden_168_H264.mp4
Format : MPEG-4
Format profile : Base Media
Codec ID : isom
File size : 200 MiB
Duration : 23mn 9s
Overall bit rate mode : Variable
Overall bit rate : 1 207 Kbps
Encoded date : UTC 2010-07-19 12:22:33
Tagged date : UTC 2010-07-19 12:22:33

Video
ID : 1
Format : AVC
Format/Info : Advanced Video Codec
Format profile : High@L4.1
Format settings, CABAC : Yes
Format settings, ReFrames : 8 frames
Codec ID : avc1
Codec ID/Info : Advanced Video Coding
Duration : 23mn 9s
Bit rate : 1 075 Kbps
Maximum bit rate : 8 312 Kbps
Width : 1 280 pixels
Height : 720 pixels
Display aspect ratio : 16:9
Frame rate mode : Constant
Frame rate : 23.976 fps
Color space : YUV
Chroma subsampling : 4:2:0
Bit depth : 8 bits
Scan type : Progressive
Bits/(Pixel*Frame) : 0.049
Stream size : 178 MiB (89%)
Title : Imported with GPAC 0.4.6-DEV (internal rev. 5)
Writing library : x264 core 98 r1649 c54c47d
Encoding settings : cabac=1 / ref=8 / deblock=1:1:1 / analyse=0x3:0x113 / me=umh / subme=9 / psy=1 / psy_rd=0.50:0.00 / mixed_ref=1 / me_range=20 / chroma_me=1 / trellis=2 / 8x8dct=1 / cqm=0 / deadzone=21,11 / fast_pskip=1 / chroma_qp_offset=-4 / threads=6 / sliced_threads=0 / nr=0 / decimate=1 / interlaced=0 / constrained_intra=0 / bframes=16 / b_pyramid=2 / b_adapt=2 / b_bias=0 / direct=3 / weightb=1 / weightp=2 / keyint=250 / keyint_min=25 / scenecut=40 / intra_refresh=0 / rc_lookahead=40 / rc=2pass / mbtree=1 / bitrate=1075 / ratetol=1.0 / qcomp=0.60 / qpmin=10 / qpmax=51 / qpstep=4 / cplxblur=20.0 / qblur=0.5 / ip_ratio=1.40 / aq=1:1.00
Encoded date : UTC 2010-07-19 12:22:33
Tagged date : UTC 2010-07-19 12:22:40

Audio
ID : 2
Format : AAC
Format/Info : Advanced Audio Codec
Format profile : LC
Codec ID : 40
Duration : 23mn 9s
Bit rate mode : Variable
Bit rate : 128 Kbps
Maximum bit rate : 143 Kbps
Channel(s) : 2 channels
Channel positions : Front: L R
Sampling rate : 44.1 KHz
Compression mode : Lossy
Stream size : 21.2 MiB (11%)
Encoded date : UTC 2010-07-19 12:22:38
Tagged date : UTC 2010-07-19 12:22:40

-=Download=-

Uploaded.net

Die Folgen 001-167 gibt es hier in Ger Dub

-=Passwort=-

Cyb3rLa1nL4y3r0