[Fantasy] Harry Potter und der Feuerkelch 2005 2160p DTS-HD BDRip 4K HDR HEVC - DIDjITAL

Harry Potter und der Feuerkelch 2005 2160p DTS-HD BDRip 4K HDR HEVC - DIDjITAL

Titel: Harry Potter und der Feuerkelch
Genre: Abenteuer, Fantasy
Release: 2005
Laufzeit: 157 Minuten
Sprachen: Deutsch DTS-HD 5.1, Englisch DTS:X 7.1
Video Source: UHD BluRay
Overall bit rate: 50,3 Mbps
Gesamtgröße: 57 GB
Passwort: didjital


7,7/10

Jahr Nr.4 beginnt an der Zauberschule Hogwarts und erstes großes Event ist die Quidditch-Weltmeisterschaft. Das Dunkle Mal erscheint am Himmel - Lord Voldemort wird die Macht übernehmen und kündigt dies eindrucksvoll an. Harry Potter (D. Radcliffe) nimmt zusätzlich noch am sogenannten trimagischen Turnier teil - ein Zauberwettstreit zwischen drei großen Zauberschulen, obwohl Harry das dafür notwendige Mindestalter noch nicht erreicht hat. In der dritten Aufgabe, dem Labyrinth - trifft er auf seinen Erzfeind - Lord Voldemort - kann Harry sich und seine Freunde retten?

Info:

Code:

General
Unique ID                                : 246820682057389142023338059146497085033 (0xB9AFEF2ACD0B3CCEB9EE0F01FFC3CE69)
Complete name                            : Harry Potter und der Feuerkelch 2005 2160p DTS-HD BDRip 4K HDR HEVC - DIDjITAL.mkv
Format                                  : Matroska
Format version                          : Version 2
File size                                : 55.2 GiB
Duration                                : 2h 37mn
Overall bit rate                        : 50.3 Mbps
Movie name                              : Harry Potter und der Feuerkelch 2005 2160p DTS-HD BDRip 4K HDR HEVC - DIDjITAL
Encoded date                            : UTC 2018-01-03 19:20:59
Writing application                      : MakeMKV v1.10.8 darwin(x64-release)
Writing library                          : libmakemkv v1.10.8 (1.3.5/1.4.7) darwin(x64-release)

Video
ID                                      : 1
Format                                  : HEVC
Format/Info                              : High Efficiency Video Coding
Format profile                          : Main 10@L5.1@High
Codec ID                                : V_MPEGH/ISO/HEVC
Duration                                : 2h 37mn
Bit rate                                : 43.9 Mbps
Width                                    : 3 840 pixels
Height                                  : 2 160 pixels
Display aspect ratio                    : 16:9
Frame rate mode                          : Constant
Frame rate                              : 23.976 (24000/1001) fps
Color space                              : YUV
Chroma subsampling                      : 4:2:0 (Type 2)
Bit depth                                : 10 bits
Bits/(Pixel*Frame)                      : 0.221
Stream size                              : 48.1 GiB (87%)
Writing library                          : ATEME Titan File 3.8.3 (4.8.3.0)       
Language                                : English
Default                                  : No
Forced                                  : No
Color range                              : Limited
Color primaries                          : BT.2020
Transfer characteristics                : PQ
Matrix coefficients                      : BT.2020 non-constant
Mastering display color primaries        : R: x=0.680000 y=0.320000, G: x=0.265000 y=0.690000, B: x=0.150000 y=0.060000, White point: x=0.312700 y=0.329000
Mastering display luminance              : min: 0.0050 cd/m2, max: 4000.0000 cd/m2
Maximum Content Light Level              : 2848 cd/m2
Maximum Frame-Average Light Level        : 617 cd/m2

Audio #1
ID                                      : 2
Format                                  : DTS
Format/Info                              : Digital Theater Systems
Format profile                          : MA / Core
Codec ID                                : A_DTS
Duration                                : 2h 37mn
Bit rate mode                            : Variable / Constant
Bit rate                                : 2 314 Kbps / 1 509 Kbps
Channel(s)                              : 6 channels
Channel positions                        : Front: L C R, Side: L R, LFE
Sampling rate                            : 48.0 KHz
Frame rate                              : 93.750 fps (512 SPF)
Bit depth                                : 16 bits
Compression mode                        : Lossless / Lossy
Stream size                              : 2.54 GiB (5%)
Title                                    : Deutsch DTS-HD MA 5.1 DIDjITAL
Language                                : German
Default                                  : Yes
Forced                                  : No

Audio #2
ID                                      : 3
Format                                  : DTS
Format/Info                              : Digital Theater Systems
Format profile                          : X / MA / Core
Codec ID                                : A_DTS
Duration                                : 2h 37mn
Bit rate mode                            : Variable / Variable / Constant
Bit rate                                : 4 051 Kbps / 4 051 Kbps / 1 509 Kbps
Channel(s)                              : Object Based / 8 channels / 6 channels
Channel positions                        : Object Based / Front: L C R, Side: L R, Back: L R, LFE / Front: L C R, Side: L R, LFE
Sampling rate                            :  / 48.0 KHz / 48.0 KHz
Frame rate                              : 93.750 fps (512 SPF)
Bit depth                                :  / 24 bits / 24 bits
Compression mode                        :  / Lossless / Lossy
Stream size                              : 4.45 GiB (8%)
Title                                    : English DTS:X 7.1 DIDjITAL
Language                                : English
Default                                  : No
Forced                                  : No

Text #1
ID                                      : 4
Format                                  : PGS
Codec ID                                : S_HDMV/PGS
Codec ID/Info                            : Picture based subtitle format used on BDs/HD-DVDs
Duration                                : 2h 36mn
Bit rate                                : 30.1 Kbps
Count of elements                        : 3656
Stream size                              : 33.7 MiB (0%)
Title                                    : Deutsch SDH DIDjITAL
Language                                : German
Default                                  : Yes
Forced                                  : No

Text #2
ID                                      : 5
Format                                  : PGS
Codec ID                                : S_HDMV/PGS
Codec ID/Info                            : Picture based subtitle format used on BDs/HD-DVDs
Duration                                : 2h 23mn
Bit rate                                : 84 bps
Count of elements                        : 10
Stream size                              : 88.5 KiB (0%)
Title                                    : Deutsch Forced DIDjITAL
Language                                : German
Default                                  : No
Forced                                  : No

Menu
00:00:00.000                            : en:Chapter 01
00:03:46.351                            : en:Chapter 02
00:06:09.369                            : en:Chapter 03
00:09:49.964                            : en:Chapter 04
00:13:45.157                            : en:Chapter 05
00:19:14.653                            : en:Chapter 06
00:23:08.970                            : en:Chapter 07
00:29:01.531                            : en:Chapter 08
00:36:26.684                            : en:Chapter 09
00:39:04.800                            : en:Chapter 10
00:41:31.989                            : en:Chapter 11
00:45:35.816                            : en:Chapter 12
00:49:07.611                            : en:Chapter 13
00:54:05.909                            : en:Chapter 14
01:02:45.970                            : en:Chapter 15
01:09:12.439                            : en:Chapter 16
01:14:43.604                            : en:Chapter 17
01:22:27.400                            : en:Chapter 18
01:30:34.554                            : en:Chapter 19
01:39:29.004                            : en:Chapter 20
01:42:42.364                            : en:Chapter 21
01:47:22.727                            : en:Chapter 22
01:50:19.029                            : en:Chapter 23
01:58:54.168                            : en:Chapter 24
02:02:01.981                            : en:Chapter 25
02:06:36.589                            : en:Chapter 26
02:10:01.502                            : en:Chapter 27
02:17:37.832                            : en:Chapter 28
02:23:48.620                            : en:Chapter 29


Download via share-online.biz
Password: didjital