Encuentros en la 3ª Fase 30 Aniversario | 1977 | CiFi | BDRip.720p.x264 | Esp.DTS/Dual.AC3 | 6.48 GB

Título original Close Encounters of the Third Kind
Año 1977
Duración 132 min.
País
Director Steven Spielberg
Guión Steven Spielberg
Música John Williams
Fotografía Vilmos Zsigmond
Reparto Richard Dreyfuss, Teri Garr, Melinda Dillon, François Truffaut, Cary Guffey, Bob Balaban, J. Patrick McNamara, Shawn Bishop, Lance Henriksen
Productora Columbia Pictures / EMI Films
Género Ciencia ficción. Fantástico | Remake. Extraterrestres

Premios
1978: BAFTA: Diseño de prod./Dirección artística. 8 nominaciones incluyendo Película
1977: 2 Oscar: Fotografía, Edición sonora (especial). 7 nominaciones incluyendo Director
1977: 4 nominaciones al Globo de Oro: Drama, Director, Guión, Música
1977: Premios David di Donatello: Mejor film extranjero
1977: Círculo de críticos de Nueva York: 2 Nominaciones

Una noche, cerca de su casa, en Indiana, Roy Neary (Richard Dreyfuss) observa en el cielo unos misteriosos objetos voladores. Desde entonces vive tan obsesionado por comprender lo que ha visto que se distancia de su esposa (Teri Garr). Encuentra apoyo en Jillian Guiler (Melinda Dillon), una mujer que también ha sido testigo de los mismos hechos. Juntos intentan encontrar una respuesta al misterio que ha alterado sus vidas. Al mismo tiempo, un nutrido grupo de científicos internacionales, bajo la dirección de Claude Lacombe (François Truffaut), empieza a investigar las apariciones de OVNIS y otros extraños fenómenos.

Sin duda alguna una de las películas más enigmáticas en la filmografía del cineasta hebreo de origen norteamericano Steven Spielberg, quien dos años después de su obra maestra por antonomasia, "Tiburón", facturaría esta película como anticipo temático de su obra más carismática y legendaria, "E.T, el Extraterrestre"...

Fue la primera vez que se abordaba el tema de los extraterrestres no como seres amenazantes, malvados y con intenciones invasoras, sino como seres civilizados con los cuales poder mantener una conversación fluída a través de un lenguaje gestual de manos para enseñar música a sordos, que inventara hacia finales del siglo XIX el compositor, etnomusicólogo y filósofo magiar Zoltán Kodály, en colaboración con el misnistro congregacionista británico John Curwen...

Además los famosos platillos volantes utilizados en las décadas de los 50 y 60 son sustituídos ahora por naves aeroespaciales de diversas formas y de una luminosidad cegadora, que más bien parece un espectáculo musical en vivo del gurú ochentero de los teclados e hijo del célebre compositor de bandas sonoras Maurice Jarre, Jean Michel...

Trata el tema de la abducción con un ritmo narrativo que recuerda las lecturas de las novelas de Julio Verne, con una maestría y dominio de los medios técnicos que con sólo 28 años que contaba entones el amigo Spielberg deja sin duda estupefacto a cualquier ser, humano o alienígena...

Los efectos especiales a cargo del reputado cineasta, ex-trabajador de la NASA y responsable de los mismos efectos en la paradigmática cinta de ciencia ficción "2001, una odisea del espacio" de Kubrick, Douglas Trumbull...

La fotografía, antes de que Douglas Slocombe se hiciera con el timón ochentero de la filmografía de Spielberg corrió a cargo de Vilmos Zsigmond y la música es todo un ejemplo de la maestría de lo conciso y sencillo...Todo un estandarte de la película a manos del genial, pese a algunas voces, John Williams...quien esta vez deja de lado su habitual artificiosidad y grandilocuente sentido creativo ("Star Wars" ó "Superman") para componer una música majestuosa que lleva ya implícito en el subconsciente del oyente al escucharla la visión de naves espaciales con seres abducidos dentro y alienígenas que quieren comunicarnos algo...

Todo un alarde soberbio de un cine, el de este jovencito de 28 años que ya con 26 nos había llamado la atención con un tiburón que sembraba el pánico en las aguas del oceáno, que aún estaba por sorprenderno con nuevas vueltas de tuerca que harían las delicias de más de un espectador...

I M P R E S C I N D I B L E.

Spoiler

Complete name : Encuentros en la Tercera Fase 30 Aniversario (1977) - AbueIo 720.mkv
Format : Matroska
Format version : Version 4 / Version 2
File size : 6.48 GiB
Duration : 2h 17mn
Overall bit rate : 6 758 Kbps
Encoded date : UTC 2015-01-20 02:50:24
Writing application : mkvmerge v7.5.0 ('Glass Culture') 64bit built on Jan 4 2015 16:48:44
Writing library : libebml v1.3.1 + libmatroska v1.4.2
DURATION : 02:17:14.067000000
NUMBER_OF_FRAMES : 197420
NUMBER_OF_BYTES : 4082539617
_STATISTICS_WRITING_APP : mkvmerge v7.5.0 ('Glass Culture') 64bit built on Jan 4 2015 16:48:44
_STATISTICS_WRITING_DATE_UTC : 2015-01-20 02:50:24
_STATISTICS_TAGS : BPS DURATION NUMBER_OF_FRAMES NUMBER_OF_BYTES

Video
ID : 1
Format : AVC
Format/Info : Advanced Video Codec
Format profile : High@L4.1
Format settings, CABAC : Yes
Format settings, ReFrames : 3 frames
Codec ID : V_MPEG4/ISO/AVC
Duration : 2h 17mn
Bit rate : 4 000 Kbps
Width : 1 280 pixels
Height : 720 pixels
Display aspect ratio : 16:9
Frame rate mode : Constant
Frame rate : 23.976 fps
Color space : YUV
Chroma subsampling : 4:2:0
Bit depth : 8 bits
Scan type : Progressive
Bits/(Pixel*Frame) : 0.181
Stream size : 3.68 GiB (57%)
Writing library : x264 core 132 r2310 76a5c3a
Encoding settings : cabac=1 / ref=2 / deblock=1:-1:-1 / analyse=0x3:0x113 / me=hex / subme=7 / psy=1 / psy_rd=1.00:0.00 / mixed_ref=1 / me_range=16 / chroma_me=1 / trellis=1 / 8x8dct=1 / cqm=0 / deadzone=21,11 / fast_pskip=1 / chroma_qp_offset=-2 / threads=12 / lookahead_threads=2 / sliced_threads=0 / nr=0 / decimate=1 / interlaced=0 / bluray_compat=0 / constrained_intra=0 / bframes=4 / b_pyramid=1 / b_adapt=1 / b_bias=0 / direct=1 / weightb=1 / open_gop=0 / weightp=2 / keyint=250 / keyint_min=25 / scenecut=40 / intra_refresh=0 / rc_lookahead=40 / rc=abr / mbtree=1 / bitrate=4000 / ratetol=1.0 / qcomp=0.60 / qpmin=0 / qpmax=69 / qpstep=4 / ip_ratio=1.40 / aq=1:1.00
Default : Yes
Forced : No

Audio #1
ID : 2
Format : DTS
Format/Info : Digital Theater Systems
Mode : 16
Format settings, Endianness : Big
Codec ID : A_DTS
Duration : 2h 17mn
Bit rate mode : Constant
Bit rate : 1 509 Kbps
Channel(s) : 6 channels
Channel positions : Front: L C R, Side: L R, LFE
Sampling rate : 48.0 KHz
Bit depth : 24 bits
Compression mode : Lossy
Stream size : 1.45 GiB (22%)
Language : Spanish
Default : Yes
Forced : No

Audio #2
ID : 3
Format : AC-3
Format/Info : Audio Coding 3
Mode extension : CM (complete main)
Format settings, Endianness : Big
Codec ID : A_AC3
Duration : 2h 17mn
Bit rate mode : Constant
Bit rate : 640 Kbps
Channel(s) : 6 channels
Channel positions : Front: L C R, Side: L R, LFE
Sampling rate : 48.0 KHz
Bit depth : 16 bits
Compression mode : Lossy
Stream size : 628 MiB (9%)
Language : English
Default : No
Forced : No

Audio #3
ID : 4
Format : AC-3
Format/Info : Audio Coding 3
Mode extension : CM (complete main)
Format settings, Endianness : Big
Codec ID : A_AC3
Duration : 2h 17mn
Bit rate mode : Constant
Bit rate : 640 Kbps
Channel(s) : 6 channels
Channel positions : Front: L C R, Side: L R, LFE
Sampling rate : 48.0 KHz
Bit depth : 16 bits
Compression mode : Lossy
Stream size : 628 MiB (9%)
Language : Spanish
Default : No
Forced : No

Text #1
ID : 5
Format : UTF-8
Codec ID : S_TEXT/UTF8
Codec ID/Info : UTF-8 Plain Text
Title : Forzados
Language : Spanish
Default : Yes
Forced : No

Text #2
ID : 6
Format : UTF-8
Codec ID : S_TEXT/UTF8
Codec ID/Info : UTF-8 Plain Text
Language : Spanish
Default : No
Forced : No

Text #3
ID : 7
Format : UTF-8
Codec ID : S_TEXT/UTF8
Codec ID/Info : UTF-8 Plain Text
Language : English
Default : No
Forced : No

Menu
00:00:00.000 : en:Chapter 01
00:11:04.121 : en:Chapter 02
00:14:41.380 : en:Chapter 03
00:19:57.196 : en:Chapter 04
00:24:07.404 : en:Chapter 05
00:37:22.573 : en:Chapter 06
00:48:38.415 : en:Chapter 07
01:01:18.216 : en:Chapter 08
01:19:32.559 : en:Chapter 09
01:22:03.835 : en:Chapter 10
01:26:26.639 : en:Chapter 11
01:34:00.092 : en:Chapter 12
01:42:35.691 : en:Chapter 13
01:45:42.377 : en:Chapter 14
01:48:48.063 : en:Chapter 15
01:53:43.399 : en:Chapter 16
01:57:49.562 : en:Chapter 17
02:02:00.521 : en:Chapter 18
02:05:52.545 : en:Chapter 19
02:11:32.426 : en:Chapter 20

Links de 155 Mb
Intercambiables
Uploaded TusFiles Uploadable 1Fichier

Archivos Totales: 49
44 Archivos .RAR de 155 Mb + 1 Archivo .RAR de 154.4 Mb
5 Archivos de Recuperación .REV
5% Registro de Recuperación en cada archivo .rar
Cortados con: WINRAR 5

INSTALAR WINRAR 5 EN MAC OX:

Código:

http://pastebin.com/k87uFyRq


Código:

http://adf.ly/wYSPa

Código:

http://adf.ly/wYSQD

Son los mismos archivos los que hay en los dos enlaces. Válido para cuando alguna página de enlaces se “caiga” y tendrás la otra disponible. Simple medida de precaución, no hace falta que busquéis en los dos links repito, al ser exactamente los mismos tanto en relink como en ncrypt.

Dale al botón de gracias o haz un comentario para mantener vivo el hilo.

Importante: Necesitas el Winrar 5 para descomprimir “manualmente” mis archivos, dado que Jdownloader NO ESTÁ preparado aún para hacerlo

Por favor, si hay problemas con los links, enviadme un mensaje privado. Es más rápido para tí, y para mí.
Muchas gracias.

FUENTE DE VIDEO UTILIZADO: BLURAY
MUXEO Y MONTAJE REALIZADO POR: AbueIo
AUDIO : BluRay AbueIo
SUBTITULOS: BLURAY Imagen .sup Convertidos a Texto .srt por AbueIo









[Pop] Ismael Serrano - La Llamada (2014)


Ismael Serrano - La Llamada (2014)


[Rap] Wöyza - Pelea (2016)