[Sonstiges] Oktopusse Genies aus der Tiefe 3D HSBS 2011 GERMAN DL DTS 720p Bluray x264 - maxmann

Oktopusse Genies aus der Tiefe 3D HSBS 2011 GERMAN DL DTS 720p Bluray x264 - maxmann

Info
Der Oktopus. Faszinierendes Meeresgeschöpf. Schlangenkünstler mit acht Armen. Intelligenz, die beobachtbar ist. Viele bemerkenswerte Attribute und Fähigkeiten treffen auf den Kraken bzw. Riesenkraken (Enteroctopus) zu. Einige davon können Sie jetzt zuhause auf dem heimischen Bildschirm erleben und bestaunen. Starten Sie mit der französischen Meeresdokumentation Oktopusse Genies aus der Tiefsee eine spannende und beeindruckende Reise in das Wesen des Oktopus.

NfO

Code:

General
Unique ID                                : 201924329160428045009235203710725913671 (0x97E9361166FA0F07813695AECC4FFC47)
Format                                  : Matroska
Format version                          : Version 2
File size                                : 2.08 GiB
Duration                                : 45 min
Overall bit rate                        : 6 553 kb/s
Encoded date                            : UTC 2016-07-18 15:46:19
Writing application                      : DVDFab 9.3.0.5
Writing library                          : libebml v0.7.8 + libmatroska v0.8.1

Video
ID                                      : 1
Format                                  : AVC
Format/Info                              : Advanced Video Codec
Format profile                          : High@L4.1
Format settings, CABAC                  : Yes
Format settings, ReFrames                : 2 frames
Codec ID                                : V_MPEG4/ISO/AVC
Duration                                : 45 min
Bit rate                                : 5 000 kb/s
Width                                    : 1 280 pixels
Height                                  : 720 pixels
Display aspect ratio                    : 16:9
Frame rate mode                          : Constant
Frame rate                              : 23.976 (24000/1001) FPS
Color space                              : YUV
Chroma subsampling                      : 4:2:0
Bit depth                                : 8 bits
Scan type                                : Progressive
Bits/(Pixel*Frame)                      : 0.226
Stream size                              : 1.55 GiB (75%)
Writing library                          : x264 core 142
Encoding settings                        : cabac=1 / ref=1 / deblock=1:-1:-1 / analyse=0x3:0 / me=hex / subme=5 / psy=0 / mixed_ref=0 / me_range=16 / chroma_me=1 / trellis=0 / 8x8dct=1 / cqm=0 / deadzone=21,11 / fast_pskip=0 / chroma_qp_offset=0 / threads=8 / lookahead_threads=2 / sliced_threads=0 / nr=0 / decimate=1 / interlaced=0 / bluray_compat=0 / constrained_intra=0 / bframes=2 / b_pyramid=0 / b_adapt=1 / b_bias=0 / direct=1 / weightb=0 / open_gop=0 / weightp=0 / keyint=24 / keyint_min=13 / scenecut=40 / intra_refresh=0 / rc=abr / mbtree=0 / bitrate=5000 / ratetol=1.0 / qcomp=0.60 / qpmin=0 / qpmax=69 / qpstep=4 / ip_ratio=1.40 / pb_ratio=1.30 / aq=1:1.00
Default                                  : Yes
Forced                                  : No
Color range                              : Limited
Color primaries                          : BT.709
Transfer characteristics                : BT.709
Matrix coefficients                      : BT.709

Audio #1
ID                                      : 2
Format                                  : DTS
Format/Info                              : Digital Theater Systems
Mode                                    : 16
Format settings, Endianness              : Big
Codec ID                                : A_DTS
Duration                                : 45 min
Bit rate mode                            : Constant
Bit rate                                : 768 kb/s
Channel(s)                              : 2 channels
Channel positions                        : Front: L R
Sampling rate                            : 48.0 kHz
Frame rate                              : 93.750 FPS (512 spf)
Bit depth                                : 16 bits
Compression mode                        : Lossy
Stream size                              : 249 MiB (12%)
Language                                : German
Default                                  : Yes
Forced                                  : No

Audio #2
ID                                      : 3
Format                                  : DTS
Format/Info                              : Digital Theater Systems
Mode                                    : 16
Format settings, Endianness              : Big
Codec ID                                : A_DTS
Duration                                : 45 min
Bit rate mode                            : Constant
Bit rate                                : 768 kb/s
Channel(s)                              : 2 channels
Channel positions                        : Front: L R
Sampling rate                            : 48.0 kHz
Frame rate                              : 93.750 FPS (512 spf)
Bit depth                                : 16 bits
Compression mode                        : Lossy
Stream size                              : 249 MiB (12%)
Language                                : English
Default                                  : No
Forced                                  : No

Text #1
ID                                      : 4
Format                                  : PGS
Codec ID                                : S_HDMV/PGS
Codec ID/Info                            : Picture based subtitle format used on BDs/HD-DVDs
Language                                : German
Default                                  : No
Forced                                  : No

Text #2
ID                                      : 5
Format                                  : PGS
Codec ID                                : S_HDMV/PGS
Codec ID/Info                            : Picture based subtitle format used on BDs/HD-DVDs
Language                                : German
Default                                  : No
Forced                                  : No

Text #3
ID                                      : 6
Format                                  : PGS
Codec ID                                : S_HDMV/PGS
Codec ID/Info                            : Picture based subtitle format used on BDs/HD-DVDs
Language                                : German
Default                                  : No
Forced                                  : No

Menu
00:00:00.000                            : en:(01)00:00:00:000

Verpackt in .rar Archiv
Parts: 3 Parts
Größe: 2.10 GB

Hinweis : 1% Wiederherstellungsinformationen enthalten

Hoster: Uploaded.net & Share-Online.biz

Unverpackt = Direktlinks (werden nicht wieder hochgeladen), wenn down dann bitte die Crypter mit den .rar Archiven nutzen :
http://ul.to/2t2h78yk

Via Relink.to:
Oktopusse3D_max_027_3D_DL

Via Share-Links.biz
(=Ersatz nur nutzen wenn Relink down/offline ist)
(Enthält Uploaded und Share-online auch wenn hier nur Download via Share-Online oder Download via Uploaded.net steht!)
download via uploaded.net

Passwort wird NICHT benötigt sollte mir beim packen ein Fehler unterlaufen sein lautet es in dem Fall:

4asdxc5s84dv