Der CHECK24 Doppelpass Fußballtalk 21 Januar 2018 German AC3 dTVRip x264 - iND

Der CHECK24 Doppelpass Fußballtalk 21 Januar 2018 German AC3 dTVRip x264 - iND

Moderator Thomas Helmer empfängt ab der neuen Saison jeden Sonntag in „Der Volkswagen Doppelpass“ eine Runde aus Sport-Journalisten, Trainern und Klub-Repräsentanten im Hilton Airport Hotel, um die brisantesten Fußball-Themen zu diskutieren. Zur Stammbesetzung zählen auch die SPORT1-Experten Armin Veh, Marcel Reif und Thomas Strunz, neuer Schiedsrichter-Experte ist Bernd Heynemann.

Kurzinfo:
Video: 2 000 Kbps, High@L3.1, 25.000 fps
Auflösung: 720x570
Audio: Deutsch AC3 2.0 192 kbps

Media-Info:

Code:

General
Unique ID                                : 170865398455578191835685217771319022111 (0x808B7A8E588A514BA2C3B0EA2BCD521F)
Complete name                            : Doppelpass.21.01.2018.mkv
Format                                  : Matroska
Format version                          : Version 4 / Version 2
File size                                : 1.55 GiB
Duration                                : 1h 51mn
Overall bit rate mode                    : Constant
Overall bit rate                        : 1 993 Kbps
Encoded date                            : UTC 2018-01-21 13:38:58
Writing application                      : TMPGEnc Video Mastering Works 6 Version
Writing library                          : TMPGEnc Video Mastering Works 6 Version

Video
ID                                      : 2
Format                                  : AVC
Format/Info                              : Advanced Video Codec
Format profile                          : High@L3.1
Format settings, CABAC                  : Yes
Format settings, ReFrames                : 11 frames
Codec ID                                : V_MPEG4/ISO/AVC
Duration                                : 1h 51mn
Bit rate mode                            : Constant
Bit rate                                : 1 762 Kbps
Nominal bit rate                        : 2 000 Kbps / 2 000 Kbps
Width                                    : 720 pixels
Height                                  : 570 pixels
Display aspect ratio                    : 16:9
Frame rate mode                          : Constant
Frame rate                              : 25.000 fps
Color space                              : YUV
Chroma subsampling                      : 4:2:0
Bit depth                                : 8 bits
Scan type                                : Progressive
Bits/(Pixel*Frame)                      : 0.172
Stream size                              : 1.37 GiB (88%)
Writing library                          : x264 core 144
Encoding settings                        : cabac=1 / ref=11 / deblock=1:0:0 / analyse=0x3:0x113 / me=hex / subme=7 / psy=1 / psy_rd=1.00:0.00 / mixed_ref=1 / me_range=16 / chroma_me=1 / trellis=1 / 8x8dct=1 / cqm=1 / deadzone=21,11 / fast_pskip=1 / chroma_qp_offset=-2 / threads=18 / lookahead_threads=3 / sliced_threads=0 / slices=1 / nr=0 / decimate=1 / interlaced=0 / minigop=0 / stitchable=1 / constrained_intra=0 / bframes=3 / b_pyramid=0 / b_adapt=1 / b_bias=0 / direct=1 / weightb=1 / open_gop=1 / weightp=2 / keyint=250 / keyint_min=25 / scenecut=40 / intra_refresh=0 / rc_lookahead=40 / rc=cbr / mbtree=1 / bitrate=2000 / ratetol=1.0 / qcomp=0.60 / qpmin=3 / qpmax=69 / qpstep=4 / vbv_maxrate=2000 / vbv_bufsize=2000 / nal_hrd=cbr / filler=1 / ip_ratio=1.40 / aq=1:1.00
Default                                  : Yes
Forced                                  : No

Audio
ID                                      : 1
Format                                  : AC-3
Format/Info                              : Audio Coding 3
Mode extension                          : CM (complete main)
Format settings, Endianness              : Big
Codec ID                                : A_AC3
Duration                                : 1h 51mn
Bit rate mode                            : Constant
Bit rate                                : 192 Kbps
Channel(s)                              : 2 channels
Channel positions                        : Front: L R
Sampling rate                            : 48.0 KHz
Compression mode                        : Lossy
Stream size                              : 153 MiB (10%)
Default                                  : Yes
Forced                                  : No

Dauer: 111 Min | Format: mkv | Größe: 1,55 GB

Download Share-online.biz:

Hier klicken

# Mirror Uploaded.net:

Hier klicken

Passwort:

kein Passwort notwendig

Alle Fussballtalks der Saison 2017/2018 hier: Einfach Fußballtalk in die Suche eingeben!!!

------