Frank Sinatra – Swinging With Frank: The Absolutely Essential Collection (2012)

Frank Sinatra – Swinging With Frank: The Absolutely Essential Collection (2012)
EAC | Flac(Image) + Cue + Log & MP3 CBR 320Kbps
3CD | Big 3, BT3054 | ~ 961 or 408 Mb | Covers Included
Vocal / Jazz / Swing
“60 Classic songs on 3CDs from legend Frank Sinatra including You Make Me Feel So Young, Swingin’ Down The Lane, The Lady Is A Tramp, That Old Black Magic, We’ll Be Together Again, I’ve Got You Under My Skin and many others.”

Frank Sinatra at Wiki | Frank Sinatra at Discogs | Frank Sinatra at Allmusic | Frank Sinatra HomePage[/url]

***********
Frank Sinatra – Swinging With Frank: The Absolutely Essential Collection (2012):

Tracklist CD1:

1. Frank Sinatra – You Make Me Feel So Young [02:55]
2. Frank Sinatra – Should I [01:29]
3. Frank Sinatra – Almost Like Being In Love [02:00]
4. Frank Sinatra – Love Walked In [02:19]
5. Frank Sinatra – I’ve Got You Under My Skin [03:47]
6. Frank Sinatra – Blue Moon [02:51]
7. Frank Sinatra – Anything Goes [02:44]
8. Frank Sinatra – On The Sunny Side Of The Street [02:37]
9. Frank Sinatra – Falling In Love With Love [01:52]
10. Frank Sinatra – Swingin’ Down The Lane [02:56]
11. Frank Sinatra – My Blue Heaven [02:03]
12. Frank Sinatra – It’s A Wonderful World [02:22]
13. Frank Sinatra – Day By Day [02:38]
14. Frank Sinatra – Come Fly With Me [03:20]
15. Frank Sinatra – You Do Something To Me [01:31]
16. Frank Sinatra – Don’t Cry Joe [03:08]
17. Frank Sinatra – Makin’ Whoopee [03:08]
18. Frank Sinatra – The Lady Is A Tramp [03:15]
19. Frank Sinatra – Yes Indeed! [02:33]
20. Frank Sinatra – When You’re Smiling [The Whole World Smiles With You][02:00]

Exact Audio Copy V1.0 beta 3 from 29. August 2011

EAC extraction logfile from 19. May 2015, 13:52

Frank Sinatra / Swinging With Frank – The Absolutely Essential Collection – Disc 1

Used drive : TSSTcorpCDDVDW SH-S202J Adapter: 0 ID: 0

Read mode : Secure
Utilize accurate stream : Yes
Defeat audio cache : Yes
Make use of C2 pointers : No

Read offset correction

: 6
Overread into Lead-In and Lead-Out : No
Fill up missing offset samples with silence : Yes
Delete leading and trailing silent blocks : No
Null samples used in CRC calculations : Yes
Used interface
: Native Win32 interface for Win NT & 2000
Gap handling
: Appended to previous track

Used output format : User Defined Encoder
Selected bitrate : 768 kBit/s
Quality : High
Add ID3 tag : No
Command line compressor : C:\Program Files\Exact Audio Copy\FLAC\FLAC.EXE
Additional command line options : -6 -V -T “ARTIST=%artist%” -T “TITLE=%title%” -T “ALBUM=%albumtitle%” -T “DATE=%year%” -T “TRACKNUMBER=%tracknr%” -T “GENRE=%genre%” -T “COMMENT=%comment%” -T “BAND=%albuminterpret%” -T “ALBUMARTIST=%albuminterpret%” -T “COMPOSER=%composer%” %haslyrics%–tag-from-file=LYRICS=”%lyricsfile%”%haslyrics% -T “DISCNUMBER=%cdnumber%” -T “TOTALDISCS=%totalcds%” -T “TOTALTRACKS=%numtracks%” %hascover%–picture=”%coverfile%”%hascover% %source% -o %dest%

TOC of the extracted CD Track | Start | Length | Start sector | End sector
–1 | 0:00.00 | 2:55.41 | 0 | 13165 2 | 2:55.41 | 1:29.19 | 13166 | 19859 3 | 4:24.60 | 2:00.67 | 19860 | 28926 4 | 6:25.52 | 2:19.04 | 28927 | 39355 5 | 8:44.56 | 3:47.49 | 39356 | 56429 6 | 12:32.30 | 2:51.32 | 56430 | 69286 7 | 15:23.62 | 2:44.24 | 69287 | 81610 8 | 18:08.11 | 2:37.36 | 81611 | 93421 9 | 20:45.47 | 1:52.55 | 93422 | 101876
10 | 22:38.27 | 2:56.31 | 101877 | 115107
11 | 25:34.58 | 2:03.15 | 115108 | 124347
12 | 27:37.73 | 2:22.64 | 124348 | 135061
13 | 30:00.62 | 2:38.72 | 135062 | 146983
14 | 32:39.59 | 3:20.12 | 146984 | 161995
15 | 35:59.71 | 1:31.70 | 161996 | 168890
16 | 37:31.66 | 3:08.35 | 168891 | 183025
17 | 40:40.26 | 3:08.41 | 183026 | 197166
18 | 43:48.67 | 3:15.41 | 197167 | 211832
19 | 47:04.33 | 2:33.03 | 211833 | 223310
20 | 49:37.36 | 2:00.25 | 223311 | 232335

Track 1 Filename G:\EAC\Frank Sinatra – Swinging With Frank – The Absolutely Essential Collection – [TFM]\Disc 11. You Make Me Feel So Young.wav Pre-gap length 0:00:02.00 Peak level 94.4 %
Extraction speed 2.7 X
Track quality 100.0 %
Test CRC 40001C5A
Copy CRC 40001C5A
Cannot be verified as accurate (confidence 1) [1801EE3F], AccurateRip returned [C28D99DD] (AR v2)
Copy OK

Track 2 Filename G:\EAC\Frank Sinatra – Swinging With Frank – The Absolutely Essential Collection – [TFM]\Disc 12. Should I.wav Peak level 92.2 %
Extraction speed 2.5 X
Track quality 100.0 %
Test CRC 13EF2034
Copy CRC 13EF2034
Cannot be verified as accurate (confidence 1) [04454699], AccurateRip returned [D1E93167] (AR v2)
Copy OK

Track 3 Filename G:\EAC\Frank Sinatra – Swinging With Frank – The Absolutely Essential Collection – [TFM]\Disc 13. Almost Like Being In Love.wav Peak level 77.5 %
Extraction speed 2.8 X
Track quality 100.0 %
Test CRC 775B1626
Copy CRC 775B1626
Cannot be verified as accurate (confidence 1) [C4CC84CC], AccurateRip returned 855E821 (AR v2)
Copy OK

Track 4 Filename G:\EAC\Frank Sinatra – Swinging With Frank – The Absolutely Essential Collection – [TFM]\Disc 14. Love Walked In.wav Peak level 93.2 %
Extraction speed 2.9 X
Track quality 100.0 %
Test CRC 678161FE
Copy CRC 678161FE
Cannot be verified as accurate (confidence 1) [92C75F4F], AccurateRip returned [1172F52D] (AR v2)
Copy OK

Track 5 Filename G:\EAC\Frank Sinatra – Swinging With Frank – The Absolutely Essential Collection – [TFM]\Disc 15. I’ve Got You Under My Skin.wav Peak level 94.4 %
Extraction speed 3.2 X
Track quality 100.0 %
Test CRC 5E49310B
Copy CRC 5E49310B
Cannot be verified as accurate (confidence 1) [0D8E0FE2], AccurateRip returned [0843EFE1] (AR v2)
Copy OK

Track 6 Filename G:\EAC\Frank Sinatra – Swinging With Frank – The Absolutely Essential Collection – [TFM]\Disc 16. Blue Moon.wav Peak level 97.5 %
Extraction speed 3.2 X
Track quality 100.0 %
Test CRC 35DB1693
Copy CRC 35DB1693
Cannot be verified as accurate (confidence 1) [727D47C0], AccurateRip returned [26EE1840] (AR v2)
Copy OK

Track 7 Filename G:\EAC\Frank Sinatra – Swinging With Frank – The Absolutely Essential Collection – [TFM]\Disc 17. Anything Goes.wav Peak level 100.0 %
Extraction speed 2.7 X
Track quality 99.9 %
Test CRC F4C21935
Copy CRC F4C21935
Cannot be verified as accurate (confidence 1) [C7CF3F7F], AccurateRip returned [24E6042C] (AR v2)
Copy OK

Track 8 Filename G:\EAC\Frank Sinatra – Swinging With Frank – The Absolutely Essential Collection – [TFM]\Disc 18. On The Sunny Side Of The Street.wav Peak level 88.5 %
Extraction speed 3.3 X
Track quality 100.0 %
Test CRC EBC76D19
Copy CRC EBC76D19
Cannot be verified as accurate (confidence 1) [E98814B0], AccurateRip returned [C4746825] (AR v2)
Copy OK

Track 9 Filename G:\EAC\Frank Sinatra – Swinging With Frank – The Absolutely Essential Collection – [TFM]\Disc 19. Falling In Love With Love.wav Peak level 90.8 %
Extraction speed 3.2 X
Track quality 100.0 %
Test CRC DD9C1320
Copy CRC DD9C1320
Cannot be verified as accurate (confidence 1) [414CDD81], AccurateRip returned [1CED263E] (AR v2)
Copy OK

Track 10 Filename G:\EAC\Frank Sinatra – Swinging With Frank – The Absolutely Essential Collection – [TFM]\Disc 1\10. Swingin’ Down The Lane.wav Peak level 94.4 %
Extraction speed 3.5 X
Track quality 100.0 %
Test CRC 3027A500
Copy CRC 3027A500
Cannot be verified as accurate (confidence 1) [8875FA4E], AccurateRip returned [9634B347] (AR v2)
Copy OK

Track 11 Filename G:\EAC\Frank Sinatra – Swinging With Frank – The Absolutely Essential Collection – [TFM]\Disc 1\11. My Blue Heaven.wav Peak level 94.2 %
Extraction speed 3.4 X
Track quality 100.0 %
Test CRC 25333B57
Copy CRC 25333B57
Cannot be verified as accurate (confidence 1) [ED13E9E9], AccurateRip returned [48F438CD] (AR v2)
Copy OK

Track 12 Filename G:\EAC\Frank Sinatra – Swinging With Frank – The Absolutely Essential Collection – [TFM]\Disc 1\12. It’s A Wonderful World.wav Peak level 98.8 %
Extraction speed 3.5 X
Track quality 100.0 %
Test CRC 396339E8
Copy CRC 396339E8
Cannot be verified as accurate (confidence 1) [924C6E5F], AccurateRip returned [4281AA15] (AR v2)
Copy OK

Track 13 Filename G:\EAC\Frank Sinatra – Swinging With Frank – The Absolutely Essential Collection – [TFM]\Disc 1\13. Day By Day.wav Peak level 72.3 %
Extraction speed 3.6 X
Track quality 100.0 %
Test CRC AE1569C5
Copy CRC AE1569C5
Cannot be verified as accurate (confidence 1) [483F27EE], AccurateRip returned [23BFD0EA] (AR v2)
Copy OK

Track 14 Filename G:\EAC\Frank Sinatra – Swinging With Frank – The Absolutely Essential Collection – [TFM]\Disc 1\14. Come Fly With Me.wav Peak level 100.0 %
Extraction speed 3.0 X
Track quality 99.9 %
Test CRC 11F0A6D3
Copy CRC 11F0A6D3
Cannot be verified as accurate (confidence 1) [77F8211B], AccurateRip returned [8A597E60] (AR v2)
Copy OK

Track 15 Filename G:\EAC\Frank Sinatra – Swinging With Frank – The Absolutely Essential Collection – [TFM]\Disc 1\15. You Do Something To Me.wav Peak level 96.0 %
Extraction speed 2.6 X
Track quality 99.8 %
Test CRC FBECB9F6
Copy CRC FBECB9F6
Cannot be verified as accurate (confidence 1) DB5CDC3, AccurateRip returned [3BCF4104] (AR v2)
Copy OK

Track 16 Filename G:\EAC\Frank Sinatra – Swinging With Frank – The Absolutely Essential Collection – [TFM]\Disc 1\16. Don’t Cry Joe.wav Peak level 93.1 %
Extraction speed 3.8 X
Track quality 100.0 %
Test CRC 5C079B5E
Copy CRC 5C079B5E
Cannot be verified as accurate (confidence 1) [8E274A60], AccurateRip returned [96FA81FF] (AR v2)
Copy OK

Track 17 Filename G:\EAC\Frank Sinatra – Swinging With Frank – The Absolutely Essential Collection – [TFM]\Disc 1\17. Makin’ Whoopee.wav Peak level 98.1 %
Extraction speed 3.3 X
Track quality 99.9 %
Test CRC 860C66F8
Copy CRC 860C66F8
Cannot be verified as accurate (confidence 1) [2E2B9841], AccurateRip returned [FF046A5F] (AR v2)
Copy OK

Track 18 Filename G:\EAC\Frank Sinatra – Swinging With Frank – The Absolutely Essential Collection – [TFM]\Disc 1\18. The Lady Is A Tramp.wav Peak level 100.0 %
Extraction speed 3.3 X
Track quality 99.9 %
Test CRC EDE855A0
Copy CRC EDE855A0
Cannot be verified as accurate (confidence 1) [98783374], AccurateRip returned [07B64AD2] (AR v2)
Copy OK

Track 19 Filename G:\EAC\Frank Sinatra – Swinging With Frank – The Absolutely Essential Collection – [TFM]\Disc 1\19. Yes Indeed!.wav Peak level 83.6 %
Extraction speed 3.2 X
Track quality 99.9 %
Test CRC 781FC49D
Copy CRC 781FC49D
Cannot be verified as accurate (confidence 1) 5700E65, AccurateRip returned [93D9A53E] (AR v2)
Copy OK

Track 20 Filename G:\EAC\Frank Sinatra – Swinging With Frank – The Absolutely Essential Collection – [TFM]\Disc 1\20. When You’re Smiling [The Whole World Smiles With You].wav Peak level 99.9 %
Extraction speed 3.7 X
Track quality 100.0 %
Test CRC 5D5E10DE
Copy CRC 5D5E10DE
Cannot be verified as accurate (confidence 1) [CE4C5010], AccurateRip returned [3AA86DD6] (AR v2)
Copy OK

No tracks could be verified as accurate
You may have a different pressing from the one(s) in the database

No errors occurred

End of status report

==== Log checksum 68A37DADC6FAFD55EB5B5E4E586D3199A65F05786A129CE15D0290759BA440D7 ====

foobar2000 1.2.9 / Dynamic Range Meter 1.1.1
log date: 2015-08-10 23:33:18

Analyzed: Frank Sinatra / Swinging With Frank – The Absolutely Essential Collection – Disc 1

DR Peak RMS Duration Track

DR11 -0.50 dB -14.39 dB 2:56 01-You Make Me Feel So Young
DR12 -0.70 dB -15.81 dB 1:29 02-Should I
DR11 -2.20 dB -15.26 dB 2:01 03-Almost Like Being In Love
DR9 -0.61 dB -13.07 dB 2:19 04-Love Walked In
DR12 -0.50 dB -14.94 dB 3:48 05-I’ve Got You Under My Skin
DR15 -0.21 dB -19.11 dB 2:51 06-Blue Moon
DR13 0.00 dB -15.18 dB 2:44 07-Anything Goes
DR12 -1.05 dB -16.34 dB 2:37 08-On The Sunny Side Of The Street
DR10 -0.83 dB -14.02 dB 1:53 09-Falling In Love With Love
DR10 -0.50 dB -12.74 dB 2:56 10-Swingin’ Down The Lane
DR12 -0.51 dB -16.74 dB 2:03 11-My Blue Heaven
DR11 -0.10 dB -14.90 dB 2:23 12-It’s A Wonderful World
DR11 -2.81 dB -16.17 dB 2:39 13-Day By Day
DR12 0.00 dB -14.82 dB 3:20 14-Come Fly With Me
DR11 -0.35 dB -16.30 dB 1:32 15-You Do Something To Me
DR9 -0.61 dB -13.24 dB 3:08 16-Don’t Cry Joe
DR12 -0.16 dB -15.58 dB 3:09 17-Makin’ Whoopee
DR13 0.00 dB -14.99 dB 3:16 18-The Lady Is A Tramp
DR11 -1.55 dB -16.41 dB 2:33 19-Yes Indeed!
DR12 0.00 dB -15.95 dB 2:00 20-When You’re Smiling [The Whole World Smiles With You]

Number of tracks: 20
Official DR value: DR11

Samplerate: 44100 Hz
Channels: 2
Bits per sample: 16
Bitrate: 778 kbps
Codec: FLAC

CUETools log; Date: 10.08.2015 23:00:02; Version: 2.1.4]
[AccurateRip ID: 0024ae9e-021d3753-1b0c1914] found.
Track [ CRC | V2 ] Status
01 [34f8e37a|1801ee3f] (0+0/1) No match
02 [a3c7ab77|04454699] (0+0/1) No match
03 [aaa5901f|c4cc84cc] (0+0/1) No match
04 [166bb3f1|92c75f4f] (0+0/1) No match
05 [839d6821|0d8e0fe2] (0+0/1) No match
06 [d70befe3|727d47c0] (0+0/1) No match
07 [01f7cc84|c7cf3f7f] (0+0/1) No match
08 [c6ef0de6|e98814b0] (0+0/1) No match
09 [9404afb7|414cdd81] (0+0/1) No match
10 [2364a8a3|8875fa4e] (0+0/1) No match
11 [019ab0ee|ed13e9e9] (0+0/1) No match
12 [08ed57c1|924c6e5f] (0+0/1) No match
13 [38eb4eb0|483f27ee] (0+0/1) No match
14 84776a7|77f8211b (0+0/1) No match
15 [f8968e3d|bdb5cdc3] (0+0/1) No match
16 [1a7f36c4|8e274a60] (0+0/1) No match
17 [ddeb3272|2e2b9841] (0+0/1) No match
18 [2216b4d5|98783374] (0+0/1) No match
19 [14c069c0|b5700e65] (0+0/1) No match
20 [36e14da8|ce4c5010] (0+0/1) No match
Offsetted by -6:
01 [de19cbc6] (0/1) No match (V2 was not tested)
02 [70b8b037] (0/1) No match (V2 was not tested)
03 [9d34a5e5] (0/1) No match (V2 was not tested)
04 [9408508d] (0/1) No match (V2 was not tested)
05 [7c8d568b] (0/1) No match (V2 was not tested)
06 [8a1d3997] (0/1) No match (V2 was not tested)
07 [5dc50a2c] (0/1) No match (V2 was not tested)
08 [a08f8f76] (0/1) No match (V2 was not tested)
09 [6ece31bd] (0/1) No match (V2 was not tested)
10 [3289e002] (0/1) No match (V2 was not tested)
11 [5c863199] (0/1) No match (V2 was not tested)
12 809aa6d (0/1) No match (V2 was not tested)
13 [13203c6a] (0/1) No match (V2 was not tested)
14 [c908f433] (0/1) No match (V2 was not tested)
15 [75f6ed27] (0/1) No match (V2 was not tested)
16 [21e27150] (0/1) No match (V2 was not tested)
17 [ad4a76e6] (0/1) No match (V2 was not tested)
18 [8fcfef2d] (0/1) No match (V2 was not tested)
19 [f1eba95e] (0/1) No match (V2 was not tested)
20 [a24d82de] (0/1) No match (V2 was not tested)

Track Peak [ CRC32 ] [W/O NULL] [ LOG ]
— 100,0 [E98DE224] [07A3CCA9]
01 94,4 [40001C5A] [378D5F4E] CRC32
02 92,2 [13EF2034] [5060AD6E] CRC32
03 77,5 [775B1626] [452AEEB3] CRC32
04 93,2 [678161FE] [896B9B9E] CRC32
05 94,4 [5E49310B] [28C2ED2E] CRC32
06 97,5 [35DB1693] [86DDDCB9] CRC32
07 100,0 [F4C21935] [DF3FD4AC] CRC32
08 88,5 [EBC76D19] [E51E5721] CRC32
09 90,8 [DD9C1320] [5B2EC576] CRC32
10 94,4 [3027A500] [9AC7D7F6] CRC32
11 94,2 [25333B57] [A0972AF1] CRC32
12 98,8 [396339E8] [D6FF24AC] CRC32
13 72,3 [AE1569C5] [C0D8D003] CRC32
14 100,0 [11F0A6D3] [28DA7DF8] CRC32
15 96,0 [FBECB9F6] [7975ED12] CRC32
16 93,1 [5C079B5E] [59D8225A] CRC32
17 98,1 [860C66F8] [D914ECC7] CRC32
18 100,0 [EDE855A0] [95DD5D18] CRC32
19 83,6 [781FC49D] [0242E4B3] CRC32
20 99,9 [5D5E10DE] [80CBE666] CRC32

Tracklist CD2:

1. Frank Sinatra – That Old Black Magic [04:02]
2. Frank Sinatra – I Concentrate On You [02:23]
3. Frank Sinatra – Too Marvellous For Words [02:33]
4. Frank Sinatra – Moonlight Of The Ganges [03:21]
5. Frank Sinatra – On The Road To Mandalay [03:28]
6. Frank Sinatra – Paper Doll [02:06]
7. Frank Sinatra – S’Posin [01:48]
8. Frank Sinatra – I Never Knew [02:15]
9. Frank Sinatra – One For My Baby[And One More For Them Road][04:23]
10. Frank Sinatra – It Happened In Monterey [02:36]
11. Frank Sinatra – Granada [03:40]
12. Frank Sinatra – Sentimental Baby [02:34]
13. Frank Sinatra – Here’s That Rainy Day [03:36]
14. Frank Sinatra – I’ve Heard That Song Before [02:30]
15. Frank Sinatra – You’re Getting To Be A Habit With Me [02:20]
16. Frank Sinatra – You’re Nobody ‘Til Somebody Loves You [04:10]
17. Frank Sinatra – Pennies From Heaven [02:45]
18. Frank Sinatra – September In The Rain [02:58]
19. Frank Sinatra – Old Devil Moon [03:58]
20. Frank Sinatra – American Beauty Rose [02:19]

Exact Audio Copy V1.0 beta 3 from 29. August 2011

EAC extraction logfile from 19. May 2015, 14:48

Frank Sinatra / Swinging With Frank – The Absolutely Essential Collection – Disc 2

Used drive : TSSTcorpCDDVDW SH-S202J Adapter: 0 ID: 0

Read mode : Secure
Utilize accurate stream : Yes
Defeat audio cache : Yes
Make use of C2 pointers : No

Read offset correction

: 6
Overread into Lead-In and Lead-Out : No
Fill up missing offset samples with silence : Yes
Delete leading and trailing silent blocks : No
Null samples used in CRC calculations : Yes
Used interface
: Native Win32 interface for Win NT & 2000
Gap handling
: Appended to previous track

Used output format : User Defined Encoder
Selected bitrate : 768 kBit/s
Quality : High
Add ID3 tag : No
Command line compressor : C:\Program Files\Exact Audio Copy\FLAC\FLAC.EXE
Additional command line options : -6 -V -T “ARTIST=%artist%” -T “TITLE=%title%” -T “ALBUM=%albumtitle%” -T “DATE=%year%” -T “TRACKNUMBER=%tracknr%” -T “GENRE=%genre%” -T “COMMENT=%comment%” -T “BAND=%albuminterpret%” -T “ALBUMARTIST=%albuminterpret%” -T “COMPOSER=%composer%” %haslyrics%–tag-from-file=LYRICS=”%lyricsfile%”%haslyrics% -T “DISCNUMBER=%cdnumber%” -T “TOTALDISCS=%totalcds%” -T “TOTALTRACKS=%numtracks%” %hascover%–picture=”%coverfile%”%hascover% %source% -o %dest%

TOC of the extracted CD Track | Start | Length | Start sector | End sector
–1 | 0:00.00 | 4:02.40 | 0 | 18189 2 | 4:02.40 | 2:23.73 | 18190 | 28987 3 | 6:26.38 | 2:33.58 | 28988 | 40520 4 | 9:00.21 | 3:21.15 | 40521 | 55610 5 | 12:21.36 | 3:28.41 | 55611 | 71251 6 | 15:50.02 | 2:06.48 | 71252 | 80749 7 | 17:56.50 | 1:48.25 | 80750 | 88874 8 | 19:45.00 | 2:15.67 | 88875 | 99066 9 | 22:00.67 | 4:23.69 | 99067 | 118860
10 | 26:24.61 | 2:36.71 | 118861 | 130631
11 | 29:01.57 | 3:40.58 | 130632 | 147189
12 | 32:42.40 | 2:34.69 | 147190 | 158808
13 | 35:17.34 | 3:36.25 | 158809 | 175033
14 | 38:53.59 | 2:30.35 | 175034 | 186318
15 | 41:24.19 | 2:20.41 | 186319 | 196859
16 | 43:44.60 | 4:10.63 | 196860 | 215672
17 | 47:55.48 | 2:45.45 | 215673 | 228092
18 | 50:41.18 | 2:58.65 | 228093 | 241507
19 | 53:40.08 | 3:58.68 | 241508 | 259425
20 | 57:39.01 | 2:19.35 | 259426 | 269885

Track 1 Filename G:\EAC\Frank Sinatra – Swinging With Frank – The Absolutely Essential Collection – [TFM]\Disc 21. That Old Black Magic.wav Pre-gap length 0:00:02.00 Peak level 79.1 %
Extraction speed 2.4 X
Track quality 100.0 %
Test CRC 2FDD21E8
Copy CRC 2FDD21E8
Cannot be verified as accurate (confidence 1) [2A7696A3], AccurateRip returned [E2834990] (AR v2)
Copy OK

Track 2 Filename G:\EAC\Frank Sinatra – Swinging With Frank – The Absolutely Essential Collection – [TFM]\Disc 22. I Concentrate On You.wav Peak level 95.6 %
Extraction speed 2.3 X
Track quality 100.0 %
Test CRC 32374568
Copy CRC 32374568
Cannot be verified as accurate (confidence 1) [EE52C030], AccurateRip returned [0F4E3C59] (AR v2)
Copy OK

Track 3 Filename G:\EAC\Frank Sinatra – Swinging With Frank – The Absolutely Essential Collection – [TFM]\Disc 23. Too Marvellous For Words.wav Peak level 100.0 %
Extraction speed 2.4 X
Track quality 100.0 %
Test CRC 3200E711
Copy CRC 3200E711
Cannot be verified as accurate (confidence 1) [A5059AD1], AccurateRip returned [46F48279] (AR v2)
Copy OK

Track 4 Filename G:\EAC\Frank Sinatra – Swinging With Frank – The Absolutely Essential Collection – [TFM]\Disc 24. Moonlight Of The Ganges.wav Peak level 93.2 %
Extraction speed 2.2 X
Track quality 99.9 %
Test CRC E70B3E09
Copy CRC E70B3E09
Cannot be verified as accurate (confidence 1) [24F62CC8], AccurateRip returned [39A49E79] (AR v2)
Copy OK

Track 5 Filename G:\EAC\Frank Sinatra – Swinging With Frank – The Absolutely Essential Collection – [TFM]\Disc 25. On The Road To Mandalay.wav Peak level 72.9 %
Extraction speed 2.7 X
Track quality 100.0 %
Test CRC 701337B5
Copy CRC 701337B5
Cannot be verified as accurate (confidence 1) [1F65AD66], AccurateRip returned [A7D8E346] (AR v2)
Copy OK

Track 6 Filename G:\EAC\Frank Sinatra – Swinging With Frank – The Absolutely Essential Collection – [TFM]\Disc 26. Paper Doll.wav Peak level 72.8 %
Extraction speed 2.6 X
Track quality 100.0 %
Test CRC 328CB925
Copy CRC 328CB925
Cannot be verified as accurate (confidence 1) [688E1B1F], AccurateRip returned [627588C0] (AR v2)
Copy OK

Track 7 Filename G:\EAC\Frank Sinatra – Swinging With Frank – The Absolutely Essential Collection – [TFM]\Disc 27. S’Posin.wav Peak level 93.3 %
Extraction speed 2.6 X
Track quality 100.0 %
Test CRC AC159428
Copy CRC AC159428
Cannot be verified as accurate (confidence 1) [FDC6C37C], AccurateRip returned [6ADC291D] (AR v2)
Copy OK

Track 8 Filename G:\EAC\Frank Sinatra – Swinging With Frank – The Absolutely Essential Collection – [TFM]\Disc 28. I Never Knew.wav Peak level 93.2 %
Extraction speed 2.8 X
Track quality 100.0 %
Test CRC E9FF5BD7
Copy CRC E9FF5BD7
Cannot be verified as accurate (confidence 1) [973728CA], AccurateRip returned [A474FC7F] (AR v2)
Copy OK

Track 9 Filename G:\EAC\Frank Sinatra – Swinging With Frank – The Absolutely Essential Collection – [TFM]\Disc 29. One For My Baby[And One More For Them Road].wav Peak level 79.4 %
Extraction speed 2.7 X
Track quality 99.9 %
Test CRC 0092C693
Copy CRC 0092C693
Cannot be verified as accurate (confidence 1) [C27A5912], AccurateRip returned [71AFA7CA] (AR v2)
Copy OK

Track 10 Filename G:\EAC\Frank Sinatra – Swinging With Frank – The Absolutely Essential Collection – [TFM]\Disc 2\10. It Happened In Monterey.wav Peak level 100.0 %
Extraction speed 3.0 X
Track quality 100.0 %
Test CRC 995ADBF0
Copy CRC 995ADBF0
Cannot be verified as accurate (confidence 1) [120C368E], AccurateRip returned [EEFDA766] (AR v2)
Copy OK

Track 11 Filename G:\EAC\Frank Sinatra – Swinging With Frank – The Absolutely Essential Collection – [TFM]\Disc 2\11. Granada.wav Peak level 98.8 %
Extraction speed 2.7 X
Track quality 99.9 %
Test CRC 6223D1E0
Copy CRC 6223D1E0
Cannot be verified as accurate (confidence 1) B9A95E3, AccurateRip returned [41822038] (AR v2)
Copy OK

Track 12 Filename G:\EAC\Frank Sinatra – Swinging With Frank – The Absolutely Essential Collection – [TFM]\Disc 2\12. Sentimental Baby.wav Peak level 56.5 %
Extraction speed 3.0 X
Track quality 100.0 %
Test CRC F7D922F2
Copy CRC F7D922F2
Cannot be verified as accurate (confidence 1) [973E3BEB], AccurateRip returned [7D0B6F9B] (AR v2)
Copy OK

Track 13 Filename G:\EAC\Frank Sinatra – Swinging With Frank – The Absolutely Essential Collection – [TFM]\Disc 2\13. Here’s That Rainy Day.wav Peak level 89.1 %
Extraction speed 3.3 X
Track quality 100.0 %
Test CRC E3FD0332
Copy CRC E3FD0332
Cannot be verified as accurate (confidence 1) [2867D469], AccurateRip returned [3A4FAB44] (AR v2)
Copy OK

Track 14 Filename G:\EAC\Frank Sinatra – Swinging With Frank – The Absolutely Essential Collection – [TFM]\Disc 2\14. I’ve Heard That Song Before.wav Peak level 69.5 %
Extraction speed 3.2 X
Track quality 100.0 %
Test CRC 0F327AD4
Copy CRC 0F327AD4
Cannot be verified as accurate (confidence 1) [ED0E5326], AccurateRip returned [323A89E7] (AR v2)
Copy OK

Track 15 Filename G:\EAC\Frank Sinatra – Swinging With Frank – The Absolutely Essential Collection – [TFM]\Disc 2\15. You’re Getting To Be A Habit With Me.wav Peak level 96.7 %
Extraction speed 3.2 X
Track quality 100.0 %
Test CRC 954B0D55
Copy CRC 954B0D55
Cannot be verified as accurate (confidence 1) [F5A2DE53], AccurateRip returned [6153E1D0] (AR v2)
Copy OK

Track 16 Filename G:\EAC\Frank Sinatra – Swinging With Frank – The Absolutely Essential Collection – [TFM]\Disc 2\16. You’re Nobody ‘Til Somebody Loves You.wav Peak level 93.3 %
Extraction speed 3.4 X
Track quality 100.0 %
Test CRC 38366185
Copy CRC 38366185
Cannot be verified as accurate (confidence 1) [9A8F3F44], AccurateRip returned [9F110FF2] (AR v2)
Copy OK

Track 17 Filename G:\EAC\Frank Sinatra – Swinging With Frank – The Absolutely Essential Collection – [TFM]\Disc 2\17. Pennies From Heaven.wav Peak level 83.4 %
Extraction speed 3.3 X
Track quality 100.0 %
Test CRC F5F009EA
Copy CRC F5F009EA
Cannot be verified as accurate (confidence 1) [3ADBE965], AccurateRip returned [18BC6607] (AR v2)
Copy OK

Track 18 Filename G:\EAC\Frank Sinatra – Swinging With Frank – The Absolutely Essential Collection – [TFM]\Disc 2\18. September In The Rain.wav Peak level 94.3 %
Extraction speed 3.4 X
Track quality 100.0 %
Test CRC 21DBCF9F
Copy CRC 21DBCF9F
Cannot be verified as accurate (confidence 1) [AA53B1FC], AccurateRip returned [F88F98C3] (AR v2)
Copy OK

Track 19 Filename G:\EAC\Frank Sinatra – Swinging With Frank – The Absolutely Essential Collection – [TFM]\Disc 2\19. Old Devil Moon.wav Peak level 100.0 %
Extraction speed 3.5 X
Track quality 100.0 %
Test CRC FAE8160A
Copy CRC FAE8160A
Cannot be verified as accurate (confidence 1) [237F4FB7], AccurateRip returned [77837084] (AR v2)
Copy OK

Track 20 Filename G:\EAC\Frank Sinatra – Swinging With Frank – The Absolutely Essential Collection – [TFM]\Disc 2\20. American Beauty Rose.wav Peak level 78.3 %
Extraction speed 2.7 X
Track quality 99.9 %
Test CRC C90CF306
Copy CRC C90CF306
Cannot be verified as accurate (confidence 1) [8E628F32], AccurateRip returned [A193BAE2] (AR v2)
Copy OK

No tracks could be verified as accurate
You may have a different pressing from the one(s) in the database

No errors occurred

End of status report

==== Log checksum 0ABF9F5813BB59FE2DF8D405B181A30BBD6CB5CE3A81412EB2440B43B593BE8E ====

foobar2000 1.2.9 / Dynamic Range Meter 1.1.1
log date: 2015-08-11 00:07:31

Analyzed: Frank Sinatra / Swinging With Frank – The Absolutely Essential Collection – Disc 2

DR Peak RMS Duration Track

DR11 -2.03 dB -15.97 dB 4:03 01-That Old Black Magic
DR12 -0.39 dB -17.39 dB 2:24 02-I Concentrate On You
DR13 0.00 dB -16.23 dB 2:34 03-Too Marvellous For Words
DR10 -0.61 dB -13.64 dB 3:21 04-Moonlight Of The Ganges
DR13 -2.74 dB -18.13 dB 3:29 05-On The Road To Mandalay
DR11 -2.75 dB -15.90 dB 2:07 06-Paper Doll
DR13 -0.60 dB -17.44 dB 1:48 07-S’Posin
DR9 -0.61 dB -12.60 dB 2:16 08-I Never Knew
DR9 -2.00 dB -13.35 dB 4:24 09-One For My Baby[And One More For Them Road]
DR12 0.00 dB -15.30 dB 2:37 10-It Happened In Monterey
DR10 -0.10 dB -12.77 dB 3:41 11-Granada
DR12 -4.95 dB -21.36 dB 2:35 12-Sentimental Baby
DR8 -1.00 dB -12.26 dB 3:36 13-Here’s That Rainy Day
DR11 -3.15 dB -16.73 dB 2:30 14-I’ve Heard That Song Before
DR14 -0.29 dB -18.15 dB 2:21 15-You’re Getting To Be A Habit With Me
DR9 -0.60 dB -12.83 dB 4:11 16-You’re Nobody ‘Til Somebody Loves You
DR12 -1.57 dB -17.56 dB 2:46 17-Pennies From Heaven
DR14 -0.51 dB -18.71 dB 2:59 18-September In The Rain
DR10 0.00 dB -12.64 dB 3:59 19-Old Devil Moon
DR11 -2.12 dB -16.03 dB 2:19 20-American Beauty Rose

Number of tracks: 20
Official DR value: DR11

Samplerate: 44100 Hz
Channels: 2
Bits per sample: 16
Bitrate: 773 kbps
Codec: FLAC

[CUETools log; Date: 10.08.2015 23:02:50; Version: 2.1.4]
[AccurateRip ID: 002ae699-02751372-200e0e14] found.
Track [ CRC | V2 ] Status
01 [72b93df1|2a7696a3] (0+0/1) No match
02 [779cd7e6|ee52c030] (0+0/1) No match
03 b5b559f|a5059ad1 (0+0/1) No match
04 [fafb398b|24f62cc8] (0+0/1) No match
05 [ffee61ac|1f65ad66] (0+0/1) No match
06 [d5b4a661|688e1b1f] (0+0/1) No match
07 [e409149d|fdc6c37c] (0+0/1) No match
08 [245fe9de|973728ca] (0+0/1) No match
09 [69fe7d0d|c27a5912] (0+0/1) No match
10 [4f7bfed2|120c368e] (0+0/1) No match
11 55be8a3|bb9a95e3 (0+0/1) No match
12 [6598e24b|973e3beb] (0+0/1) No match
13 9525a19|2867d469 (0+0/1) No match
14 [3ba843fb|ed0e5326] (0+0/1) No match
15 f54de50|f5a2de53 (0+0/1) No match
16 [2b73539d|9a8f3f44] (0+0/1) No match
17 [0705b75c|3adbe965] (0+0/1) No match
18 [7e400671|aa53b1fc] (0+0/1) No match
19 [a4fe665b|237f4fb7] (0+0/1) No match
20 6fcb50d|8e628f32 (0+0/1) No match
Offsetted by 6:
01 [2cc5d6e9] (0/1) No match (V2 was not tested)
02 [99b6b91e] (0/1) No match (V2 was not tested)
03 [5e766947] (0/1) No match (V2 was not tested)
04 [1136d467] (0/1) No match (V2 was not tested)
05 [8a01bdf2] (0/1) No match (V2 was not tested)
06 [d0a2f8b7] (0/1) No match (V2 was not tested)
07 [51f6120d] (0/1) No match (V2 was not tested)
08 [32aaa9ea] (0/1) No match (V2 was not tested)
09 [1b4cf23f] (0/1) No match (V2 was not tested)
10 [2da8d0a6] (0/1) No match (V2 was not tested)
11 [3cee8049] (0/1) No match (V2 was not tested)
12 [4ca6e5a5] (0/1) No match (V2 was not tested)
13 [ccffe7b1] (0/1) No match (V2 was not tested)
14 [820ed715] (0/1) No match (V2 was not tested)
15 [2c1d6d02] (0/1) No match (V2 was not tested)
16 [31e1cb23] (0/1) No match (V2 was not tested)
17 [e62db4c5] (0/1) No match (V2 was not tested)
18 [cde45608] (0/1) No match (V2 was not tested)
19 [fae1b503] (0/1) No match (V2 was not tested)
20 [cb5062e1] (0/1) No match (V2 was not tested)

Track Peak [ CRC32 ] [W/O NULL] [ LOG ]
— 100,0 [4991C001] [22B8ABB4]
01 79,1 [2FDD21E8] [1DC3FC4F] CRC32
02 95,6 [32374568] [E7B909E1] CRC32
03 100,0 [3200E711] [89229CC4] CRC32
04 93,2 [E70B3E09] [5481822F] CRC32
05 72,9 [701337B5] [822E7BE9] CRC32
06 72,8 [328CB925] [D8EEDD82] CRC32
07 93,3 [AC159428] [A705C78E] CRC32
08 93,2 [E9FF5BD7] [AD8CC220] CRC32
09 79,4 [0092C693] [556C9445] CRC32
10 100,0 [995ADBF0] [795DB835] CRC32
11 98,8 [6223D1E0] [3E4250E3] CRC32
12 56,5 [F7D922F2] [C356383D] CRC32
13 89,1 [E3FD0332] [47AFBE66] CRC32
14 69,5 [0F327AD4] [65A7DFE2] CRC32
15 96,7 [954B0D55] [63747CFD] CRC32
16 93,3 [38366185] [F23A3008] CRC32
17 83,4 [F5F009EA] [ACDC8AD3] CRC32
18 94,3 [21DBCF9F] [28DA7870] CRC32
19 100,0 [FAE8160A] [EC09221D] CRC32
20 78,3 [C90CF306] [A649BC0E] CRC32

Tracklist CD3:

1. Frank Sinatra – Please Don’t Talk About Me When I’m Gone[02:58]
2. Frank Sinatra – It’s Only A Paper Moon [02:19]
3. Frank Sinatra – You Brought A New Kind Of Love To Me [02:51]
4. Frank Sinatra – Lover [01:52]
5. Frank Sinatra – How About You? [02:50]
6. Frank Sinatra – I Can’t Believe You’re In Love With Me [02:24]
7. Frank Sinatra – I Thought About You [02:32]
8. Frank Sinatra – Sentimental Journey [03:23]
9. Frank Sinatra – We’ll Be Together Again [04:30]
10. Frank Sinatra – It All Depends On You [02:01]
11. Frank Sinatra – The Curse Of An Aching Heart [02:07]
12. Frank Sinatra – Angel Eyes [03:47]
13. Frank Sinatra – Ol’ MacDonald [02:39]
14. Frank Sinatra – When No One Cares [02:42]
15. Frank Sinatra – Five Minutes More [02:35]
16. Frank Sinatra – Don’t Be That Way [02:41]
17. Frank Sinatra – You’d Be So Nice To Come Home To [02:02]
18. Frank Sinatra – Don’t Take Your Love From Me [01:59]
19. Frank Sinatra – Always [02:17]
20. Frank Sinatra – Have You Met Miss Jones? [02:34]

Exact Audio Copy V1.0 beta 3 from 29. August 2011

EAC extraction logfile from 19. May 2015, 15:42

Frank Sinatra / Swinging With Frank – The Absolutely Essential Collection – Disc 3

Used drive : TSSTcorpCDDVDW SH-S202J Adapter: 0 ID: 0

Read mode : Secure
Utilize accurate stream : Yes
Defeat audio cache : Yes
Make use of C2 pointers : No

Read offset correction

: 6
Overread into Lead-In and Lead-Out : No
Fill up missing offset samples with silence : Yes
Delete leading and trailing silent blocks : No
Null samples used in CRC calculations : Yes
Used interface
: Native Win32 interface for Win NT & 2000
Gap handling
: Appended to previous track

Used output format : User Defined Encoder
Selected bitrate : 768 kBit/s
Quality : High
Add ID3 tag : No
Command line compressor : C:\Program Files\Exact Audio Copy\FLAC\FLAC.EXE
Additional command line options : -6 -V -T “ARTIST=%artist%” -T “TITLE=%title%” -T “ALBUM=%albumtitle%” -T “DATE=%year%” -T “TRACKNUMBER=%tracknr%” -T “GENRE=%genre%” -T “COMMENT=%comment%” -T “BAND=%albuminterpret%” -T “ALBUMARTIST=%albuminterpret%” -T “COMPOSER=%composer%” %haslyrics%–tag-from-file=LYRICS=”%lyricsfile%”%haslyrics% -T “DISCNUMBER=%cdnumber%” -T “TOTALDISCS=%totalcds%” -T “TOTALTRACKS=%numtracks%” %hascover%–picture=”%coverfile%”%hascover% %source% -o %dest%

TOC of the extracted CD Track | Start | Length | Start sector | End sector
–1 | 0:00.00 | 2:58.50 | 0 | 13399 2 | 2:58.50 | 2:19.27 | 13400 | 23851 3 | 5:18.02 | 2:51.69 | 23852 | 36745 4 | 8:09.71 | 1:52.25 | 36746 | 45170 5 | 10:02.21 | 2:50.37 | 45171 | 57957 6 | 12:52.58 | 2:24.19 | 57958 | 68776 7 | 15:17.02 | 2:32.14 | 68777 | 80190 8 | 17:49.16 | 3:23.08 | 80191 | 95423 9 | 21:12.24 | 4:30.21 | 95424 | 115694
10 | 25:42.45 | 2:01.19 | 115695 | 124788
11 | 27:43.64 | 2:07.25 | 124789 | 134338
12 | 29:51.14 | 3:47.56 | 134339 | 151419
13 | 33:38.70 | 2:39.19 | 151420 | 163363
14 | 36:18.14 | 2:42.27 | 163364 | 175540
15 | 39:00.41 | 2:35.10 | 175541 | 187175
16 | 41:35.51 | 2:41.51 | 187176 | 199301
17 | 44:17.27 | 2:02.09 | 199302 | 208460
18 | 46:19.36 | 1:59.32 | 208461 | 217417
19 | 48:18.68 | 2:17.15 | 217418 | 227707
20 | 50:36.08 | 2:34.70 | 227708 | 239327

Track 1 Filename G:\EAC\Frank Sinatra – Swinging With Frank – The Absolutely Essential Collection – [TFM]\Disc 31. Please Don’t Talk About Me When I’m Gone.wav Pre-gap length 0:00:02.00 Peak level 92.2 %
Extraction speed 2.6 X
Track quality 100.0 %
Test CRC F03DBAC2
Copy CRC F03DBAC2
Cannot be verified as accurate (confidence 1) [7FDCA81E], AccurateRip returned [AFE01292] (AR v2)
Copy OK

Track 2 Filename G:\EAC\Frank Sinatra – Swinging With Frank – The Absolutely Essential Collection – [TFM]\Disc 32. It’s Only A Paper Moon.wav Peak level 99.6 %
Extraction speed 2.6 X
Track quality 100.0 %
Test CRC 6F81336E
Copy CRC 6F81336E
Cannot be verified as accurate (confidence 1) [CA112059], AccurateRip returned [06B01045] (AR v2)
Copy OK

Track 3 Filename G:\EAC\Frank Sinatra – Swinging With Frank – The Absolutely Essential Collection – [TFM]\Disc 33. You Brought A New Kind Of Love To Me.wav Peak level 100.0 %
Extraction speed 2.8 X
Track quality 100.0 %
Test CRC 5A06B671
Copy CRC 5A06B671
Cannot be verified as accurate (confidence 1) [3A4294EB], AccurateRip returned [E645E116] (AR v2)
Copy OK

Track 4 Filename G:\EAC\Frank Sinatra – Swinging With Frank – The Absolutely Essential Collection – [TFM]\Disc 34. Lover.wav Peak level 85.0 %
Extraction speed 2.8 X
Track quality 100.0 %
Test CRC D43FB3C7
Copy CRC D43FB3C7
Cannot be verified as accurate (confidence 1) [267D0D72], AccurateRip returned [0FE22FDD] (AR v2)
Copy OK

Track 5 Filename G:\EAC\Frank Sinatra – Swinging With Frank – The Absolutely Essential Collection – [TFM]\Disc 35. How About You.wav Peak level 100.0 %
Extraction speed 3.0 X
Track quality 100.0 %
Test CRC E15DF9E6
Copy CRC E15DF9E6
Cannot be verified as accurate (confidence 1) [234B62D2], AccurateRip returned [7879DB7C] (AR v2)
Copy OK

Track 6 Filename G:\EAC\Frank Sinatra – Swinging With Frank – The Absolutely Essential Collection – [TFM]\Disc 36. I Can’t Believe You’re In Love With Me.wav Peak level 97.9 %
Extraction speed 3.0 X
Track quality 100.0 %
Test CRC 304F9B34
Copy CRC 304F9B34
Cannot be verified as accurate (confidence 1) [05D5DDA8], AccurateRip returned [541687CA] (AR v2)
Copy OK

Track 7 Filename G:\EAC\Frank Sinatra – Swinging With Frank – The Absolutely Essential Collection – [TFM]\Disc 37. I Thought About You.wav Peak level 100.0 %
Extraction speed 3.2 X
Track quality 100.0 %
Test CRC 274474A1
Copy CRC 274474A1
Cannot be verified as accurate (confidence 1) [CBD28295], AccurateRip returned [61BB5789] (AR v2)
Copy OK

Track 8 Filename G:\EAC\Frank Sinatra – Swinging With Frank – The Absolutely Essential Collection – [TFM]\Disc 38. Sentimental Journey.wav Peak level 71.4 %
Extraction speed 3.3 X
Track quality 100.0 %
Test CRC EBD73130
Copy CRC EBD73130
Cannot be verified as accurate (confidence 1) [4C8F926D], AccurateRip returned [948A7601] (AR v2)
Copy OK

Track 9 Filename G:\EAC\Frank Sinatra – Swinging With Frank – The Absolutely Essential Collection – [TFM]\Disc 39. We’ll Be Together Again.wav Peak level 100.0 %
Extraction speed 3.4 X
Track quality 100.0 %
Test CRC EA4E2A3C
Copy CRC EA4E2A3C
Cannot be verified as accurate (confidence 1) 4DCC953, AccurateRip returned [802E02B6] (AR v2)
Copy OK

Track 10 Filename G:\EAC\Frank Sinatra – Swinging With Frank – The Absolutely Essential Collection – [TFM]\Disc 3\10. It All Depends On You.wav Peak level 94.8 %
Extraction speed 3.3 X
Track quality 100.0 %
Test CRC 678A5BE6
Copy CRC 678A5BE6
Cannot be verified as accurate (confidence 1) [9B5E3669], AccurateRip returned [3A29CA63] (AR v2)
Copy OK

Track 11 Filename G:\EAC\Frank Sinatra – Swinging With Frank – The Absolutely Essential Collection – [TFM]\Disc 3\11. The Curse Of An Aching Heart.wav Peak level 93.1 %
Extraction speed 3.3 X
Track quality 100.0 %
Test CRC C235D0A2
Copy CRC C235D0A2
Cannot be verified as accurate (confidence 1) [160DCAB1], AccurateRip returned [A66D2C26] (AR v2)
Copy OK

Track 12 Filename G:\EAC\Frank Sinatra – Swinging With Frank – The Absolutely Essential Collection – [TFM]\Disc 3\12. Angel Eyes.wav Peak level 100.0 %
Extraction speed 2.9 X
Track quality 99.9 %
Test CRC 2B9FEAE2
Copy CRC 2B9FEAE2
Cannot be verified as accurate (confidence 1) [9E535DE1], AccurateRip returned [736C1415] (AR v2)
Copy OK

Track 13 Filename G:\EAC\Frank Sinatra – Swinging With Frank – The Absolutely Essential Collection – [TFM]\Disc 3\13. Ol’ MacDonald.wav Peak level 98.1 %
Extraction speed 3.5 X
Track quality 100.0 %
Test CRC 70F939BE
Copy CRC 70F939BE
Cannot be verified as accurate (confidence 1) [1000832C], AccurateRip returned [78FCD5AC] (AR v2)
Copy OK

Track 14 Filename G:\EAC\Frank Sinatra – Swinging With Frank – The Absolutely Essential Collection – [TFM]\Disc 3\14. When No One Cares.wav Peak level 89.0 %
Extraction speed 3.0 X
Track quality 99.9 %
Test CRC 12126C30
Copy CRC 12126C30
Cannot be verified as accurate (confidence 1) [10310672], AccurateRip returned [A1DAC201] (AR v2)
Copy OK

Track 15 Filename G:\EAC\Frank Sinatra – Swinging With Frank – The Absolutely Essential Collection – [TFM]\Disc 3\15. Five Minutes More.wav Peak level 84.6 %
Extraction speed 3.7 X
Track quality 100.0 %
Test CRC 0DFD1FC2
Copy CRC 0DFD1FC2
Cannot be verified as accurate (confidence 1) [ED2E873A], AccurateRip returned [7FBA96CE] (AR v2)
Copy OK

Track 16 Filename G:\EAC\Frank Sinatra – Swinging With Frank – The Absolutely Essential Collection – [TFM]\Disc 3\16. Don’t Be That Way.wav Peak level 92.4 %
Extraction speed 3.0 X
Track quality 99.9 %
Test CRC 25418DEC
Copy CRC 25418DEC
Cannot be verified as accurate (confidence 1) [4DFE9F00], AccurateRip returned 066CAC8 (AR v2)
Copy OK

Track 17 Filename G:\EAC\Frank Sinatra – Swinging With Frank – The Absolutely Essential Collection – [TFM]\Disc 3\17. You’d Be So Nice To Come Home To.wav Peak level 98.8 %
Extraction speed 3.6 X
Track quality 100.0 %
Test CRC C6BABA1C
Copy CRC C6BABA1C
Cannot be verified as accurate (confidence 1) [048CFC2F], AccurateRip returned [CEBEEBC1] (AR v2)
Copy OK

Track 18 Filename G:\EAC\Frank Sinatra – Swinging With Frank – The Absolutely Essential Collection – [TFM]\Disc 3\18. Don’t Take Your Love From Me.wav Peak level 62.8 %
Extraction speed 3.6 X
Track quality 100.0 %
Test CRC B6FEF461
Copy CRC B6FEF461
Cannot be verified as accurate (confidence 1) [23E8B5DC], AccurateRip returned [66BF48D9] (AR v2)
Copy OK

Track 19 Filename G:\EAC\Frank Sinatra – Swinging With Frank – The Absolutely Essential Collection – [TFM]\Disc 3\19. Always.wav Peak level 100.0 %
Extraction speed 3.6 X
Track quality 100.0 %
Test CRC CE98A407
Copy CRC CE98A407
Cannot be verified as accurate (confidence 1) 719AAE3, AccurateRip returned [D343DBE3] (AR v2)
Copy OK

Track 20 Filename G:\EAC\Frank Sinatra – Swinging With Frank – The Absolutely Essential Collection – [TFM]\Disc 3\20. Have You Met Miss Jones.wav Peak level 92.0 %
Extraction speed 3.8 X
Track quality 100.0 %
Test CRC 5DAD0784
Copy CRC 5DAD0784
Cannot be verified as accurate (confidence 1) CCF224F, AccurateRip returned [0B8C60D9] (AR v2)
Copy OK

No tracks could be verified as accurate
You may have a different pressing from the one(s) in the database

No errors occurred

End of status report

==== Log checksum FFE226AD5B94E7EDA3CE5405341A17B3210805907D1EBEC882D4C0A970069A02 ====

foobar2000 1.2.9 / Dynamic Range Meter 1.1.1
log date: 2015-08-11 00:08:26

Analyzed: Frank Sinatra / Swinging With Frank – The Absolutely Essential Collection – Disc 3

DR Peak RMS Duration Track

DR9 -0.70 dB -11.99 dB 2:59 01-Please Don’t Talk About Me When I’m Gone
DR14 -0.03 dB -18.25 dB 2:19 02-It’s Only A Paper Moon
DR11 0.00 dB -13.32 dB 2:52 03-You Brought A New Kind Of Love To Me
DR10 -1.41 dB -15.10 dB 1:52 04-Lover
DR11 0.00 dB -13.96 dB 2:50 05-How About You?
DR13 -0.18 dB -18.90 dB 2:24 06-I Can’t Believe You’re In Love With Me
DR11 0.00 dB -12.82 dB 2:32 07-I Thought About You
DR11 -2.92 dB -17.98 dB 3:23 08-Sentimental Journey
DR11 0.00 dB -13.62 dB 4:30 09-We’ll Be Together Again
DR13 -0.46 dB -17.49 dB 2:01 10-It All Depends On You
DR8 -0.61 dB -10.85 dB 2:07 11-The Curse Of An Aching Heart
DR13 0.00 dB -18.00 dB 3:48 12-Angel Eyes
DR13 -0.17 dB -18.29 dB 2:39 13-Ol’ MacDonald
DR8 -1.00 dB -12.19 dB 2:42 14-When No One Cares
DR11 -1.45 dB -15.63 dB 2:35 15-Five Minutes More
DR11 -0.68 dB -13.96 dB 2:42 16-Don’t Be That Way
DR11 -0.10 dB -14.72 dB 2:02 17-You’d Be So Nice To Come Home To
DR10 -4.03 dB -17.43 dB 1:59 18-Don’t Take Your Love From Me
DR13 0.00 dB -17.47 dB 2:17 19-Always
DR10 -0.72 dB -14.81 dB 2:35 20-Have You Met Miss Jones?

Number of tracks: 20
Official DR value: DR11

Samplerate: 44100 Hz
Channels: 2
Bits per sample: 16
Bitrate: 777 kbps
Codec: FLAC

[CUETools log; Date: 10.08.2015 23:06:12; Version: 2.1.4]
[AccurateRip ID: 002727ac-023ee915-0a0c7714] found.
Track [ CRC | V2 ] Status
01 [ead0d952|7fdca81e] (0+0/1) No match
02 [2567e681|ca112059] (0+0/1) No match
03 [24ccbc32|3a4294eb] (0+0/1) No match
04 [5485411b|267d0d72] (0+0/1) No match
05 [e9a6da91|234b62d2] (0+0/1) No match
06 [8222b588|05d5dda8] (0+0/1) No match
07 [f32c37a1|cbd28295] (0+0/1) No match
08 [e4d3de25|4c8f926d] (0+0/1) No match
09 [c1496ebc|b4dcc953] (0+0/1) No match
10 [13e8ea72|9b5e3669] (0+0/1) No match
11 [f3da58a9|160dcab1] (0+0/1) No match
12 [63e27d79|9e535de1] (0+0/1) No match
13 [e4a7a348|1000832c] (0+0/1) No match
14 [25d8df03|10310672] (0+0/1) No match
15 [6e974605|ed2e873a] (0+0/1) No match
16 [9b5e8d1d|4dfe9f00] (0+0/1) No match
17 [81eff09e|048cfc2f] (0+0/1) No match
18 [a2ccb481|23e8b5dc] (0+0/1) No match
19 [606e5e58|b719aae3] (0+0/1) No match
20 [272f03c0|bccf224f] (0+0/1) No match
Offsetted by 6:
01 [1c3377a2] (0/1) No match (V2 was not tested)
02 [60ef9c88] (0/1) No match (V2 was not tested)
03 [d2229ba1] (0/1) No match (V2 was not tested)
04 [3ed3ff63] (0/1) No match (V2 was not tested)
05 [402a147b] (0/1) No match (V2 was not tested)
06 [d186a41a] (0/1) No match (V2 was not tested)
07 [8a4726d5] (0/1) No match (V2 was not tested)
08 [2e817e93] (0/1) No match (V2 was not tested)
09 [8eb89214] (0/1) No match (V2 was not tested)
10 3aad4d0 (0/1) No match (V2 was not tested)
11 [8535a855] (0/1) No match (V2 was not tested)
12 [3ab8a70f] (0/1) No match (V2 was not tested)
13 [4eeb3580] (0/1) No match (V2 was not tested)
14 6463a0f (0/1) No match (V2 was not tested)
15 [0263fd49] (0/1) No match (V2 was not tested)
16 [ff039153] (0/1) No match (V2 was not tested)
17 [4d0ef138] (0/1) No match (V2 was not tested)
18 [e6970d0b] (0/1) No match (V2 was not tested)
19 [7dab3c6a] (0/1) No match (V2 was not tested)
20 [029e4764] (0/1) No match (V2 was not tested)

Track Peak [ CRC32 ] [W/O NULL] [ LOG ]
— 100,0 [832B4DFC] [68FE597E]
01 92,2 [F03DBAC2] [C53399B4] CRC32
02 99,6 [6F81336E] [758238BD] CRC32
03 100,0 [5A06B671] [E7D7F9D9] CRC32
04 85,0 [D43FB3C7] [22D719E7] CRC32
05 100,0 [E15DF9E6] [91EFDBB0] CRC32
06 97,9 [304F9B34] [F6A974D9] CRC32
07 100,0 [274474A1] [21468850] CRC32
08 71,4 [EBD73130] [065E2E8E] CRC32
09 100,0 [EA4E2A3C] [9F3E4A30] CRC32
10 94,8 [678A5BE6] [4EFF2062] CRC32
11 93,1 [C235D0A2] [4F37BA65] CRC32
12 100,0 [2B9FEAE2] [96752C6A] CRC32
13 98,1 [70F939BE] [3430FB6E] CRC32
14 89,0 [12126C30] 32E3BF4 CRC32
15 84,6 [0DFD1FC2] [254542FF] CRC32
16 92,4 [25418DEC] [99C2C86A] CRC32
17 98,8 [C6BABA1C] [70E2EBA9] CRC32
18 62,8 6FEF461 [7EC83C81] CRC32
19 100,0 [CE98A407] [235B6B23] CRC32
20 92,0 [5DAD0784] [1C60E1BD] CRC32

All thanks go to tifon

Download Frank Sinatra – Swinging With Frank: The Absolutely Essential Collection (2012):

DOWNLOAD LINKS:
Buy Premium To Support Me & Get Resumable Support & Max Speed
Rapidgator.net:
ubg43.FSinatra12SWFCD1flac.rar.html
ubg43.FSinatra12SWFCD1mp3320.rar.html
ubg43.FSinatra12SWFCD2flac.rar.html
ubg43.FSinatra12SWFCD2mp3320.rar.html
ubg43.FSinatra12SWFCD3flac.rar.html
ubg43.FSinatra12SWFCD3mp3320.rar.html

Uploaded.net:
ubg43.FSinatra12SWFCD1flac.rar
ubg43.FSinatra12SWFCD1mp3320.rar
ubg43.FSinatra12SWFCD2flac.rar
ubg43.FSinatra12SWFCD2mp3320.rar
ubg43.FSinatra12SWFCD3flac.rar
ubg43.FSinatra12SWFCD3mp3320.rar

Uploadable.ch:
ubg43.FSinatra12SWFCD1flac.rar
ubg43.FSinatra12SWFCD1mp3320.rar
ubg43.FSinatra12SWFCD2flac.rar
ubg43.FSinatra12SWFCD2mp3320.rar
ubg43.FSinatra12SWFCD3flac.rar
ubg43.FSinatra12SWFCD3mp3320.rar
Links are Interchangeable – No Password – Single Extraction








Tropix - Your Island Getaway [Cheat]