Armored Saint – La Raza (2010)

Armored Saint – La Raza (2010) [Digisleeve]
EAC Rip | FLAC: Image+Cue+Log | 384 Mb | MP3 CBR 320 kbps | 134 Mb | Scans | 42 Mb | Time: 51:37
Genre: Heavy Metal | Label: Metal Blade Records Inc. | Cat.№: 3984-14891-2
“La Raza is the sixth studio album by American heavy metal band Armored Saint, which was released on March 16, 2010 on Metal Blade Records. Armored Saint reformed the entire Symbol of Salvation lineup to record La Raza in 2009 after an eight-year hiatus. Armored Saint don’t move outside of their comfort zone and the results are a collection of strong, yet predictable, traditional metal songs.”

Armored Saint[/url] | Wikipedia | Amazon


Track Listing

01. Loose Cannon (05:06)
02. Head On (05:46)
03. Left Hook From Right Field (05:31)
04. Get Off The Fence (04:48)
05. Chilled (05:02)
06. La Raza (06:41)
07. Black Feet (05:07)
08. Little Monkey (04:45)
09. Blues (03:32)
10. Bandit Country (05:16)

Produced by Joey Vera

The Band

* John Bush: Vocals
* Jeff Duncan: Guitars
* Phil Sandoval: Guitars
* Joey Vera: Bass, Guitars, Backing Vocals
* Gonza Sandoval: Drums, Percussion

Additional Musicians:

* Eddie Rouse: Congas (6)
* Steve Zukowsky: Theremin (6)
* Jon Saxon: Percussion

Exact Audio Copy V0.99 prebeta 5 from 4. May 2009

EAC extraction logfile from 21. May 2010, 21:54

Armored Saint / La Raza

Used drive : TSSTcorpDVD+-RW TS-H653G Adapter: 1 ID: 0

Read mode : Secure
Utilize accurate stream : Yes
Defeat audio cache : Yes
Make use of C2 pointers : No

Read offset correction

: 6
Overread into Lead-In and Lead-Out : No
Fill up missing offset samples with silence : Yes
Delete leading and trailing silent blocks : No
Null samples used in CRC calculations : Yes
Used interface
: Native Win32 interface for Win NT & 2000

Used output format : User Defined Encoder
Selected bitrate : 128 kBit/s
Quality : High
Add ID3 tag : No
Command line compressor : C:\Program Files (x86)\EAC\Exact Audio Copy\Flac\flac.exe
Additional command line options : -6 -V %s

TOC of the extracted CD Track | Start | Length | Start sector | End sector
–1 | 0:00.00 | 5:06.61 | 0 | 23010 2 | 5:06.61 | 5:46.25 | 23011 | 48985 3 | 10:53.11 | 5:31.00 | 48986 | 73810 4 | 16:24.11 | 4:48.23 | 73811 | 95433 5 | 21:12.34 | 5:01.74 | 95434 | 118082 6 | 26:14.33 | 6:40.73 | 118083 | 148155 7 | 32:55.31 | 5:07.31 | 148156 | 171211 8 | 38:02.62 | 4:45.01 | 171212 | 192587 9 | 42:47.63 | 3:32.68 | 192588 | 208555
10 | 46:20.56 | 5:15.73 | 208556 | 232253

Range status and errors

Selected range Filename C:\Users\sammy\Music\lossless rips by twistedsam\Armored Saint – La Raza (2010)\Armored Saint – La Raza.wav Peak level 100.0 %
Range quality 100.0 %
Copy CRC 8F86E447
Copy OK

No errors occurred

AccurateRip summary

Track 1 accurately ripped (confidence 4) [36453895]
Track 2 accurately ripped (confidence 4) [1D019235]
Track 3 accurately ripped (confidence 4) [988F91E8]
Track 4 accurately ripped (confidence 4) [43A1720D]
Track 5 accurately ripped (confidence 4) [5C7B4AB4]
Track 6 accurately ripped (confidence 4) [69B22D59]
Track 7 accurately ripped (confidence 4) [97E97795]
Track 8 accurately ripped (confidence 4) [D8DFEE98]
Track 9 accurately ripped (confidence 4) [D198E601]
Track 10 accurately ripped (confidence 4) [F966A349]

All tracks accurately ripped

End of status report

Many thanks to the original uploader: Twistedsam
DOWNLOAD LINKS:
Buy Premium To Support Me & Get Resumable Support & Max Speed
Rapidgator.net:
m10pp.ASLRDflac.rar.html
m10pp.ASLRDmp3.rar.html
m10pp.ASLRDscans.rar.html

Uploaded.net:
m10pp.ASLRDflac.rar
m10pp.ASLRDmp3.rar
m10pp.ASLRDscans.rar

Uploadable.ch:
m10pp.ASLRDflac.rar
m10pp.ASLRDmp3.rar
m10pp.ASLRDscans.rar
Links are Interchangeable – No Password – Single Extraction



Sorceror"s Kingdom [Cheat][Sega]


Evil Islands [Walkthrough]


Baldur"s Gate - Enhanced Edition [Walkthrough]


Conqueror 1086 AD [Walkthrough]




Icewind Dale [Walkthrough]


The Banner Saga [Walkthrough]


Gothic 2 [Cheat]