Great Grand Masti (2016) 720p mHD DVDSCR Watch Online/Download

- BollywooD MoviE -
**- Great Grand Masti -**
- 2016 -
** 720p DvDSCR rip / XviD / AAC **
**New Source**

Info:

Quote:

General
Format : Matroska
File size : 1.53 GiB
Duration : 2h 14mn
Overall bit rate : 1 629 Kbps
Encoded date : UTC 2016-07-05 14:09:03

Video
Format : AVC
Format/Info : Advanced Video Codec
Format profile : High@L4.1
Format settings, CABAC : Yes
Format settings, ReFrames : 12 frames
Duration : 2h 14mn
Bit rate : 1 500 Kbps
Width : 1 280 pixels
Height : 544 pixels
Display aspect ratio : 2.35:1
Frame rate mode : Constant
Frame rate : 50.000 fps
Color space : YUV
Chroma subsampling : 4:2:0
Bit depth : 8 bits
Scan type : Progressive
Bits/(Pixel*Frame) : 0.043
Stream size : 1.40 GiB (92%)
Language : English
Default : Yes
Forced : No
Color range : Limited
Color primaries : BT.709

Audio
Format : AAC
Format/Info : Advanced Audio Codec
Format profile : LC
Codec ID : A_AAC
Duration : 2h 14mn
Bit rate : 125 Kbps
Channel(s) : 2 channels
Channel positions : Front: L R
Sampling rate : 44.1 KHz
Frame rate : 43.066 fps (1024 spf)
Compression mode : Lossy
Stream size : 120 MiB (8%)
Language : Hindi
Default : Yes
Forced : No

Watch Online/Download:

Code:

https://openload.co/f/btQsjCLEQs0