[Rnb] Luther Vandross And Janet Jackson - The Best Things In Life Are Free (1992)

Luther Vandross And Janet Jackson - The Best Things In Life Are Free (1992)

Genre: R&B / Soul

Format: MP3, 320 Kbps, 44100 Hz, 16 Bit, Joint-Stereo
Encoder: LAME v3.100 (Okt 2017)
Normalisierung: aus

Downloadgröße: 81,68 MB
Packformat: RAR, WHDat: 4%
Parts: 1

Tracklist:

01. Luther Vandross And Janet Jackson - The Best Things In Life Are Free (CJ's UK 7'' With Rap)
02. Luther Vandross And Janet Jackson - The Best Things In Life Are Free (CJ's UK 12'' With Rap)
03. Luther Vandross And Janet Jackson - The Best Things In Life Are Free (Classic 7'' With Rap)
04. Luther Vandross And Janet Jackson - The Best Things In Life Are Free (Classic 12'' With Rap)
05. Luther Vandross And Janet Jackson - The Best Things In Life Are Free (Def Version)
06. Luther Vandross And Janet Jackson - The Best Things In Life Are Free (CJ's UK Dub 1)

LOG:

Exact Audio Copy V1.3 from 2. September 2016

EAC extraction logfile from 13. November 2017, 23:57

Luther Vandross And Janet Jackson / The Best Things In Life Are Free

Used drive : HL-DT-STBD-RE BH16NS40 Adapter: 1 ID: 0

Read mode : Secure
Utilize accurate stream : Yes
Defeat audio cache : Yes
Make use of C2 pointers : No

Read offset correction : 6
Overread into Lead-In and Lead-Out : No
Fill up missing offset samples with silence : Yes
Delete leading and trailing silent blocks : No
Null samples used in CRC calculations : Yes
Used interface : Native Win32 interface for Win NT & 2000
Gap handling : Appended to previous track

Used output format : LAME MP3 Encoder
Selected bitrate : 320 kBit/s
Quality : High
Add ID3 tag : Yes
Command line compressor : C:\Program Files (x86)\Exact Audio Copy\LAME v3.100 x64\lame.exe
Additional command line options : --abr 320 -V0 -q0 -mj -b 320 -F -B320 --lowpass 20.0 --highpass 0.002 --lowpass-width 2.00 --scale 0.99 --replaygain-accurate --priority 4 --strictly-enforce-ISO --quiet

TOC of the extracted CD

Track | Start | Length | Start sector | End sector
---------------------------------------------------------
1 | 0:00.00 | 5:32.25 | 0 | 24924
2 | 5:32.25 | 7:12.32 | 24925 | 57356
3 | 12:44.57 | 4:21.53 | 57357 | 76984
4 | 17:06.35 | 5:53.07 | 76985 | 103466
5 | 22:59.42 | 8:40.48 | 103467 | 142514
6 | 31:40.15 | 6:46.42 | 142515 | 173006

Track 1

Filename I:\AudioCD-MP3\Luther Vandross And Janet Jackson - The Best Things In Life Are Free (1992)\01. Luther Vandross And Janet Jackson - The Best Things In Life Are Free (CJ's UK 7'' With Rap).wav

Pre-gap length 0:00:02.00

Peak level 100.0 %
Extraction speed 1.9 X
Track quality 99.9 %
Copy CRC 2D574E18
Accurately ripped (confidence 22) [02D4DDB5] (AR v2)
Copy OK

Track 2

Filename I:\AudioCD-MP3\Luther Vandross And Janet Jackson - The Best Things In Life Are Free (1992)\02. Luther Vandross And Janet Jackson - The Best Things In Life Are Free (CJ's UK 12'' With Rap).wav

Pre-gap length 0:00:00.23

Peak level 91.1 %
Extraction speed 2.6 X
Track quality 100.0 %
Copy CRC ED21F403
Accurately ripped (confidence 22) [A01552FC] (AR v2)
Copy OK

Track 3

Filename I:\AudioCD-MP3\Luther Vandross And Janet Jackson - The Best Things In Life Are Free (1992)\03. Luther Vandross And Janet Jackson - The Best Things In Life Are Free (Classic 7'' With Rap).wav

Peak level 93.6 %
Extraction speed 2.5 X
Track quality 100.0 %
Copy CRC C929B092
Accurately ripped (confidence 23) [B1D1622B] (AR v2)
Copy OK

Track 4

Filename I:\AudioCD-MP3\Luther Vandross And Janet Jackson - The Best Things In Life Are Free (1992)\04. Luther Vandross And Janet Jackson - The Best Things In Life Are Free (Classic 12'' With Rap).wav

Peak level 85.9 %
Extraction speed 2.8 X
Track quality 100.0 %
Copy CRC 393D0060
Accurately ripped (confidence 23) [7233731A] (AR v2)
Copy OK

Track 5

Filename I:\AudioCD-MP3\Luther Vandross And Janet Jackson - The Best Things In Life Are Free (1992)\05. Luther Vandross And Janet Jackson - The Best Things In Life Are Free (Def Version).wav

Peak level 79.7 %
Extraction speed 2.7 X
Track quality 99.9 %
Copy CRC 3806F9F9
Accurately ripped (confidence 23) [675566A0] (AR v2)
Copy OK

Track 6

Filename I:\AudioCD-MP3\Luther Vandross And Janet Jackson - The Best Things In Life Are Free (1992)\06. Luther Vandross And Janet Jackson - The Best Things In Life Are Free (CJ's UK Dub 1).wav

Peak level 83.4 %
Extraction speed 3.1 X
Track quality 99.9 %
Copy CRC 9117555F
Accurately ripped (confidence 23) [FAC33546] (AR v2)
Copy OK

All tracks accurately ripped

No errors occurred

End of status report

---- CUETools DB Plugin V2.1.6

[CTDB TOCID: 5jRYi56RFmb11UV8ughZw92Meaw-] found
Submit result: already submitted
Track | CTDB Status
1 | (16/16) Accurately ripped
2 | (16/16) Accurately ripped
3 | (16/16) Accurately ripped
4 | (16/16) Accurately ripped
5 | (16/16) Accurately ripped
6 | (16/16) Accurately ripped

==== Log checksum 5662A7CEAC1A10988539322F01C3BCA61AB83F2072B8E0CB49 83B2598723E9D1 ====

HOSTER: Share-Online

! kein Uploaded !

Download:
http://relink.to/f/154d066278a09e874093130b2ea2a1

Passwort:

only4you




Jixipix Software Rip Studio Pro.v1.0.5 (Portable)




Free – Free Live! (1971)


XBMC Free Live TV Full + Crack



Free - Live at the BBC (2006)