[Pop] Wow That Was The 60's (1999)

Tracklist:

CD 1:

01. Johnny Kidd and The Pirates - Shakin' all over
02. Adam Faith - Poor me
03. Helen Shapiro - Walking back to happiness
04. Eddie Cochran - Three steps to heaven
05. Bobby Vee - Rubber ball
06. Ricky Valance - Tell Laura I love her
07. Del Shannon - Runaway
08. Dion - Runaround Sue
09. The Shirelles - Will you love me tomorrow
10. Little Eva - The loco-motion
11. Ventures - Walk don't run
12. Tommy Bruce and The Bruisers - Ain't misbehavin'
13. Highwaymen - Michael row the boat ashore
14. Crickets - Don't ever change
15. Kenny Lynch - Up on the roof
16. John Leyton - Johnny remember me
17. Tornados - Telstar
18. Shadows - Apache
19. Gerry and The Pacemakers - How do you do it?
20. Swinging Blue Jeans - Hippy hippy shake

CD 2:

01. Freddie & The Dreamers - If you gotta make a fool of somebody
02. Billy J. Kramer & The Dakotas - Do you want to know a secret
03. The Shadows - Kon-tiki
04. Adam Faith - Someone else's baby
05. Bobby Vee - Run to him
06. The Ventures - Perfidia
07. The Crickets - My little girl
08. Eddie Cochran - Weekend
09. Dion - The wanderer
10. Bruce Channel - Hey baby
11. Paul & Paula - Hey Paula
12. Bobby Vee - The night has a thousand eyes
13. The Chiffons - He's so fine
14. The Dakotas - The cruel sea
15. The Bachelors - Charmaine
16. The Shadows - Wonderful land
17. Adam Faith - Johnny comes marching home
18. Helen Shapiro - Queen for tonight
19. Johnny Kidd & The Pirates - I'll never get over you
20. Gerry & The Pacemakers - You'll never walk alone

CD 3:

01. The Shadows - Foot tapper
02. Freddie & The Dreamers - You were made for me
03. Billy J. Kramer & The Dakotas - Bad to me
04. The Searchers - Needles and pins
05. Manfred Mann - 5-4-3-2-1
06. The Swinging Blue Jeans - Good golly miss Molly
07. Fourmost - Baby I need your lovin
08. Cliff Bennett & The Rebell Rousers - One way love
09. Peter & Gordon - A world without love
10. Gerry & The Pacemakers - Don't let the sun catch you crying
11. Zombies - She's not there
12. Jan & Dean - Surf city
13. P.J. Proby - Together
14. Del Shannon - Little town flirt
15. Johnny Tillotson - Talk back tremblin' lips
16. The Crickets - La bamba
17. Paramounts - Poison ivy
18. The Shadows - Dance on
19. Freddie & The Dreamers - I'm telling you now
20. The Animals - The house of the rising sun

CD 4:

01. The Hollies - Just one look
02. Herman's Hermits - I'm into something good
03. The Searchers - Don't throw your love away
04. Billy J. Kramer & The Dakotas - Little children
05. Gerry & The Pacemakers - Ferry across The Mersey
06. Fourmost - A little loving
07. P.J. Proby - Somewhere
08. The Swinging Blue Jeans - You're no good
09. Cilla Black - Anyone who had a heart
10. Manfred Mann - Do wah diddy
11. Peter & Gordon - True love ways
12. Toys - A lovers concerto
13. The McCoys - Hang on Sloopy
14. Shangri-Las - Leader of the pack
15. Freddy & The Dreamers - I understand (just how you feel)
16. Nashville Teens - Tobacco road
17. Herman's Hermits - Silhouettes
18. P.J. Proby - Hold me
19. Ivy League - Tossin' and turnin'
20. Donovan - Catch the wind

CD 5:

01. The Animals - Don't let me be misunderstood
02. The Yardbirds - For your love
03. Manfred Mann - If you gotta go, go now
04. The Hollies - I'm alive
05. Peter & Gordon - To know you is to love you
06. Billy J. Kramer & The Dakotas - Trains and boats and planes
07. Herman's Hermits - Wonderful world
08. Matt Monro - Yesterday
09. The Bachelors - The sound of silence
10. Cilla Black - You're my world (il mio mondo)
11. The Seekers - The carnival is over
12. Cliff Bennett & The Rebel Rousers - Got to get you into my life
13. The Chiffons - Sweet talking guy
14. Chris Farlowe - Think
15. The Animals - We've gotta get out of this place
16. Manfred Mann - Sha la la
17. Herman's Hermits - A must to avoid
18. Graham Bonney - Super girl
19. Rod Stewart - Little misunderstood
20. The Beach Boys - Good vibrations

CD 6:

01. The Tremeloes - Silence is golden
02. The Hollies - Bus stop
03. Cher - Bang bang (my baby shot me down)
04. The Beach Boys - God only knows
05. Small Faces - Tin soldier
06. Herman's Hermits - No milk today
07. Manfred Mann - Come tomorrow
08. Chris Farlowe - Yesterdays papers
09. Alan Price - The house that Jack built
10. Simon Dupree & The Big Sound - Kites
11. The Byrds - It won't be wrong
12. Tommy James & The Shondells - Crimson and clover
13. Paul Jones - High time
14. Herman's Hermits - There's a kind of hush
15. Keith West - Excerpt from a teenage opera
16. The Turtles - Happy together
17. The Seekers - Georgy girl
18. Manfred Mann - Pretty flamingo
19. Chris Farlowe - Paint it black
20. Jeff Beck - Hi ho silver lining

CD 7:

01. Small Faces - Itchycoo park
02. The Flowerpot Men - Let's go to San Francisco
03. The Tremeloes - Even the bad times are good
04. The Hollies - Carrie Anne
05. Chris Farlowe - Handbags and gladrags
06. P.P. Arnold - The first cut is the deepest
07. The Beach Boys - Heroes and villains
08. Paul Jones - I've been a bad bad boy
09. Herman's Hermits - Mrs. Brown you've got a lovely daughter
10. Scaffold - Thank u very much
11. The Turtles - Elenore
[12. Honeybus - I can't let Maggie go
13. Lulu - I'm a tiger
14. Bobby Goldsboro - Honey
15. Canned Heat - On the road again
16. Eddy Cochran - Sumertime blues
17. Classics IV - Spooky
18. Scaffold - Lily the pink
19. The Nice - America
20. Status Quo - Pictures of matchstick men

CD 8:

01. Humble Pie - Natural Born Boogie
02. Amen Corner - (If Paradise Is) Half As Nice
03. Small Faces - Lazy Sunday
04. Fleetwood Mac - Man Of The World
05. The Tremeloes - (Call Me) Number One
06. Bonzo Dog Doo-Dah Band - I'm The Urban Spaceman
07. Peter Sarstedt - Where Do You Go To My Lovely
08. The Foundations - Build Me Up Buttercup
09. Lulu - Boom Bang-A-Bang
10. Herman's Hermits - My Sentimental Friend
11. Tommy James & The Shondells
12. The Band - The Weight
13. Canned Heat - Goin' Up The Country
14. Joe South - Games People Play
15. Jimmy Cliff - Wonderful World, Beautiful People
16. Desmond Dekker - The Israelites
17. Amen Corner - Hello Susie
18. Paul Jones - Aquarius
19. The Beach Boys - Do It Again
20. Blue Mink - Melting Pot.

Log:

CD 1:

Exact Audio Copy V1.0 beta 1 from 15. November 2010

????? EAC ?? ??????????, ??????????? 16. ??????? 2011, 9:51

Various / Wow, that was the 60's (CD1'8)

????????: HL-DT-STDVD-RAM GH22NP21 Adapter: 0 ID: 0

????? ?????? : ?????????????
????????????? ??????? ?????? : ??
?????????? ???? ????? : ??
????????????? ?????????? C2 : ???

????????? ???????? ??? ?????? : 102
??????????? ?????? ??????? Lead-in ? Lead-out : ???
?????????? ??????????? ??????? ??????? : ??
???????? ?????? ? ??????? ? ?????? ? ????? : ???
??? ??????????? CRC ?????????????? ??????? ?????? : ??
????????? : ?????????? Win32-????????? ??? Win NT/2000

???????? ?????? : ???????????????? ??????????
????????? ??????? : 1024 kBit/s
???????? : ???????
?????????? ID3-???? : ???
??????? ?????? : C:\Program Files\Exact Audio Copy\FLAC\FLAC.EXE
?????????????? ????????? : -8 -V -T "ARTIST=%a" -T "TITLE=%t" -T "ALBUM=%g" -T "DATE=%y" -T "TRACKNUMBER=%n" -T "GENRE=%m" -T "COMMENT=%e" %j--picture="%i"%j %s -o %d

TOC ???????????? CD

???? | ????? | ???????????? | ????????? ?????? | ???????? ??????
---------------------------------------------------------------------
1 | 0:00.00 | 2:20.43 | 0 | 10542
2 | 2:20.43 | 1:46.23 | 10543 | 18515
3 | 4:06.66 | 2:31.00 | 18516 | 29840
4 | 6:37.66 | 2:23.24 | 29841 | 40589
5 | 9:01.15 | 2:19.09 | 40590 | 51023
6 | 11:20.24 | 2:39.63 | 51024 | 63011
7 | 14:00.12 | 2:19.65 | 63012 | 73501
8 | 16:20.02 | 2:35.66 | 73502 | 85192
9 | 18:55.68 | 2:42.69 | 85193 | 97411
10 | 21:38.62 | 2:24.02 | 97412 | 108213
11 | 24:02.64 | 2:04.09 | 108214 | 117522
12 | 26:06.73 | 2:08.29 | 117523 | 127151
13 | 28:15.27 | 2:44.14 | 127152 | 139465
14 | 30:59.41 | 2:15.12 | 139466 | 149602
15 | 33:14.53 | 2:36.69 | 149603 | 161371
16 | 35:51.47 | 2:40.36 | 161372 | 173407
17 | 38:32.08 | 3:17.24 | 173408 | 188206
18 | 41:49.32 | 2:54.43 | 188207 | 201299
19 | 44:44.00 | 1:54.70 | 201300 | 209919
20 | 46:38.70 | 1:44.09 | 209920 | 217728

?????????????? ????????? ?????????? ? ????????? ?? ???????

????????? ????????

??? ????? D:\??????? ?? torrents.ru\VA - Wow That Was The 60's 8 Cd Box Set,1999(lossless)\CD1\Various - Wow, that was the 60's (CD1'8).wav

??????? ??????? 100.0 %
0.0 X
???????? ????????? 100.0 %
CRC ????? 8E618D72
CRC ????? 8E618D72
???????????... OK

?????? ?? ?????????

AccurateRip: ??????

???? 1 ?????? ?????????? (??????? 2) [457A4925]
???? 2 ?????? ?????????? (??????? 3) [C7A05065]
???? 3 ?????? ?????????? (??????? 2) [82A66660]
???? 4 ?????? ?????????? (??????? 2) [D8450BB0]
???? 5 ?????? ?????????? (??????? 2) [CFBF275D]
???? 6 ?????? ?????????? (??????? 3) [1255A262]
???? 7 ?????? ?????????? (??????? 2) [29959B88]
???? 8 ?????? ?????????? (??????? 2) [5F327E13]
???? 9 ?????? ?????????? (??????? 2) [820E9D3E]
???? 10 ?????? ?????????? (??????? 2) [3173642A]
???? 11 ?????? ?????????? (??????? 2) [B6CB4E75]
???? 12 ?????? ?????????? (??????? 3) [F90C9CFD]
???? 13 ?????? ?????????? (??????? 3) [E0C56A7B]
???? 14 ?????? ?????????? (??????? 2) [F898B5C8]
???? 15 ?????? ?????????? (??????? 3) [4BD35206]
???? 16 ?????? ?????????? (??????? 2) [3000C3E8]
???? 17 ?????? ?????????? (??????? 2) [BF9232D0]
???? 18 ?????? ?????????? (??????? 2) [FE329FC0]
???? 19 ?????? ?????????? (??????? 2) [EF764592]
???? 20 ?????? ?????????? (??????? 2) [90B1E8F0]

??? ????? ????????? ?????

????? ??????

CD 2:

Exact Audio Copy V1.0 beta 1 from 15. November 2010

????? EAC ?? ??????????, ??????????? 13. ??????? 2011, 21:14

various / WOW, that was the 60's (CD2'8)

????????: HL-DT-STDVD-RAM GH22NP21 Adapter: 0 ID: 0

????? ?????? : ?????????????
????????????? ??????? ?????? : ??
?????????? ???? ????? : ??
????????????? ?????????? C2 : ???

????????? ???????? ??? ?????? : 102
??????????? ?????? ??????? Lead-in ? Lead-out : ???
?????????? ??????????? ??????? ??????? : ??
???????? ?????? ? ??????? ? ?????? ? ????? : ???
??? ??????????? CRC ?????????????? ??????? ?????? : ??
????????? : ?????????? Win32-????????? ??? Win NT/2000

???????? ?????? : ???????????????? ??????????
????????? ??????? : 1024 kBit/s
???????? : ???????
?????????? ID3-???? : ???
??????? ?????? : C:\Program Files\Exact Audio Copy\FLAC\FLAC.EXE
?????????????? ????????? : -8 -V -T "ARTIST=%a" -T "TITLE=%t" -T "ALBUM=%g" -T "DATE=%y" -T "TRACKNUMBER=%n" -T "GENRE=%m" -T "COMMENT=%e" %j--picture="%i"%j %s -o %d

TOC ???????????? CD

???? | ????? | ???????????? | ????????? ?????? | ???????? ??????
---------------------------------------------------------------------
1 | 0:00.00 | 1:58.46 | 0 | 8895
2 | 1:58.46 | 2:00.59 | 8896 | 17954
3 | 3:59.30 | 1:53.57 | 17955 | 26486
4 | 5:53.12 | 2:03.74 | 26487 | 35785
5 | 7:57.11 | 2:09.62 | 35786 | 45522
6 | 10:06.73 | 2:04.60 | 45523 | 54882
7 | 12:11.58 | 1:57.10 | 54883 | 63667
8 | 14:08.68 | 1:47.49 | 63668 | 71741
9 | 15:56.42 | 2:43.59 | 71742 | 84025
10 | 18:40.26 | 2:23.19 | 84026 | 94769
11 | 21:03.45 | 2:28.66 | 94770 | 105935
12 | 23:32.36 | 2:34.62 | 105936 | 117547
13 | 26:07.23 | 1:55.02 | 117548 | 126174
14 | 28:02.25 | 2:14.60 | 126175 | 136284
15 | 30:17.10 | 2:35.01 | 136285 | 147910
16 | 32:52.11 | 2:02.47 | 147911 | 157107
17 | 34:54.58 | 2:01.36 | 157108 | 166218
18 | 36:56.19 | 2:10.10 | 166219 | 175978
19 | 39:06.29 | 2:07.57 | 175979 | 185560
20 | 41:14.11 | 2:38.74 | 185561 | 197484

?????????????? ????????? ?????????? ? ????????? ?? ???????

????????? ????????

??? ????? D:\??????? ?? torrents.ru\VA - Wow That Was The 60's 8 Cd Box Set,1999(lossless)\CD2\various - WOW, that was the 60's (CD2'8).wav

??????? ??????? 99.9 %
0.1 X
???????? ????????? 100.0 %
CRC ????? 402F45C0
CRC ????? 402F45C0
???????????... OK

?????? ?? ?????????

AccurateRip: ??????

???? 1 ?????? ?????????? (??????? 2) [EA0533C5]
???? 2 ?????? ?????????? (??????? 2) [498FDD8E]
???? 3 ?????? ?????????? (??????? 2) [2E2AE1A2]
???? 4 ?????? ?????????? (??????? 3) [E67B7D41]
???? 5 ?????? ?????????? (??????? 2) [770D4EBD]
???? 6 ?????? ?????????? (??????? 2) [2651EE0B]
???? 7 ?????? ?????????? (??????? 3) [1963A72B]
???? 8 ?????? ?????????? (??????? 2) [62EF4CEC]
???? 9 ?????? ?????????? (??????? 2) [F653EF0A]
???? 10 ?????? ?????????? (??????? 2) [64C959D4]
???? 11 ?????? ?????????? (??????? 2) [52CA1FDF]
???? 12 ?????? ?????????? (??????? 2) [A4F2A878]
???? 13 ?????? ?????????? (??????? 3) [7A4ECC33]
???? 14 ?????? ?????????? (??????? 2) [865183F4]
???? 15 ?????? ?????????? (??????? 2) [6B321621]
???? 16 ?????? ?????????? (??????? 2) [6163BB6A]
???? 17 ?????? ?????????? (??????? 2) [5A74E339]
???? 18 ?????? ?????????? (??????? 2) [E073F94A]
???? 19 ?????? ?????????? (??????? 2) [6EEBFE93]
???? 20 ?????? ?????????? (??????? 2) [5CE62940]

??? ????? ????????? ?????

????? ??????

CD 3:

Exact Audio Copy V1.0 beta 1 from 15. November 2010

????? EAC ?? ??????????, ??????????? 13. ??????? 2011, 22:03

various / WOW, that was the 60's (CD3'8)

????????: HL-DT-STDVD-RAM GH22NP21 Adapter: 0 ID: 0

????? ?????? : ?????????????
????????????? ??????? ?????? : ??
?????????? ???? ????? : ??
????????????? ?????????? C2 : ???

????????? ???????? ??? ?????? : 102
??????????? ?????? ??????? Lead-in ? Lead-out : ???
?????????? ??????????? ??????? ??????? : ??
???????? ?????? ? ??????? ? ?????? ? ????? : ???
??? ??????????? CRC ?????????????? ??????? ?????? : ??
????????? : ?????????? Win32-????????? ??? Win NT/2000

???????? ?????? : ???????????????? ??????????
????????? ??????? : 1024 kBit/s
???????? : ???????
?????????? ID3-???? : ???
??????? ?????? : C:\Program Files\Exact Audio Copy\FLAC\FLAC.EXE
?????????????? ????????? : -8 -V -T "ARTIST=%a" -T "TITLE=%t" -T "ALBUM=%g" -T "DATE=%y" -T "TRACKNUMBER=%n" -T "GENRE=%m" -T "COMMENT=%e" %j--picture="%i"%j %s -o %d

TOC ???????????? CD

???? | ????? | ???????????? | ????????? ?????? | ???????? ??????
---------------------------------------------------------------------
1 | 0:00.00 | 2:34.33 | 0 | 11582
2 | 2:34.33 | 2:19.07 | 11583 | 22014
3 | 4:53.40 | 2:20.41 | 22015 | 32555
4 | 7:14.06 | 2:12.49 | 32556 | 42504
5 | 9:26.55 | 1:59.01 | 42505 | 51430
6 | 11:25.56 | 2:05.73 | 51431 | 60878
7 | 13:31.54 | 2:27.65 | 60879 | 71968
8 | 15:59.44 | 2:21.09 | 71969 | 82552
9 | 18:20.53 | 2:40.59 | 82553 | 94611
10 | 21:01.37 | 2:35.74 | 94612 | 106310
11 | 23:37.36 | 2:23.36 | 106311 | 117071
12 | 26:00.72 | 2:42.44 | 117072 | 129265
13 | 28:43.41 | 2:34.40 | 129266 | 140855
14 | 31:18.06 | 2:45.14 | 140856 | 153244
15 | 34:03.20 | 2:37.51 | 153245 | 165070
16 | 36:40.71 | 2:43.17 | 165071 | 177312
17 | 39:24.13 | 2:08.01 | 177313 | 186913
18 | 41:32.14 | 2:23.00 | 186914 | 197638
19 | 43:55.14 | 2:08.51 | 197639 | 207289
20 | 46:03.65 | 4:28.60 | 207290 | 227449

?????????????? ????????? ?????????? ? ????????? ?? ???????

????????? ????????

??? ????? D:\??????? ?? torrents.ru\VA - Wow That Was The 60's 8 Cd Box Set,1999(lossless)\CD3\various - WOW, that was the 60's (CD3'8).wav

??????? ??????? 99.9 %
0.2 X
???????? ????????? 100.0 %
CRC ????? C80FC452
CRC ????? C80FC452
???????????... OK

?????? ?? ?????????

AccurateRip: ??????

???? 1 ?????? ?????????? (??????? 2) [EA0C8A26]
???? 2 ?????? ?????????? (??????? 2) [164ADD3C]
???? 3 ?????? ?????????? (??????? 2) [5F18FA89]
???? 4 ?????? ?????????? (??????? 2) [8A909E0C]
???? 5 ?????? ?????????? (??????? 2) [5AFCC87D]
???? 6 ?????? ?????????? (??????? 2) [85DA1B43]
???? 7 ?????? ?????????? (??????? 2) [CAE77E5E]
???? 8 ?????? ?????????? (??????? 2) [43CAD61C]
???? 9 ?????? ?????????? (??????? 2) [E1FB60C8]
???? 10 ?????? ?????????? (??????? 2) [92600C41]
???? 11 ?????? ?????????? (??????? 2) [047C1BE4]
???? 12 ?????? ?????????? (??????? 2) [2B49CC13]
???? 13 ?????? ?????????? (??????? 2) [3D01BBC3]
???? 14 ?????? ?????????? (??????? 2) [BE129DE4]
???? 15 ?????? ?????????? (??????? 2) [6DEC4A58]
???? 16 ?????? ?????????? (??????? 3) [BBC2618E]
???? 17 ?????? ?????????? (??????? 2) [8BA72990]
???? 18 ?????? ?????????? (??????? 2) [C895B55A]
???? 19 ?????? ?????????? (??????? 2) [06E51E15]
???? 20 ?????? ?????????? (??????? 2) [2FBC1F80]

??? ????? ????????? ?????

????? ??????

CD 4:

Exact Audio Copy V1.0 beta 1 from 15. November 2010

????? EAC ?? ??????????, ??????????? 13. ??????? 2011, 23:04

Various / WOW, that was the 60's (CD4'8)

????????: HL-DT-STDVD-RAM GH22NP21 Adapter: 0 ID: 0

????? ?????? : ?????????????
????????????? ??????? ?????? : ??
?????????? ???? ????? : ??
????????????? ?????????? C2 : ???

????????? ???????? ??? ?????? : 102
??????????? ?????? ??????? Lead-in ? Lead-out : ???
?????????? ??????????? ??????? ??????? : ??
???????? ?????? ? ??????? ? ?????? ? ????? : ???
??? ??????????? CRC ?????????????? ??????? ?????? : ??
????????? : ?????????? Win32-????????? ??? Win NT/2000

???????? ?????? : ???????????????? ??????????
????????? ??????? : 1024 kBit/s
???????? : ???????
?????????? ID3-???? : ???
??????? ?????? : C:\Program Files\Exact Audio Copy\FLAC\FLAC.EXE
?????????????? ????????? : -8 -V -T "ARTIST=%a" -T "TITLE=%t" -T "ALBUM=%g" -T "DATE=%y" -T "TRACKNUMBER=%n" -T "GENRE=%m" -T "COMMENT=%e" %j--picture="%i"%j %s -o %d

TOC ???????????? CD

???? | ????? | ???????????? | ????????? ?????? | ???????? ??????
---------------------------------------------------------------------
1 | 0:00.00 | 2:29.51 | 0 | 11225
2 | 2:29.51 | 2:32.34 | 11226 | 22659
3 | 5:02.10 | 2:15.57 | 22660 | 32841
4 | 7:17.67 | 2:47.24 | 32842 | 45390
5 | 10:05.16 | 2:24.33 | 45391 | 56223
6 | 12:29.49 | 2:06.24 | 56224 | 65697
7 | 14:35.73 | 3:17.40 | 65698 | 80512
8 | 17:53.38 | 2:17.07 | 80513 | 90794
9 | 20:10.45 | 2:50.56 | 90795 | 103600
10 | 23:01.26 | 2:23.21 | 103601 | 114346
11 | 25:24.47 | 2:38.27 | 114347 | 126223
12 | 28:02.74 | 2:37.49 | 126224 | 138047
13 | 30:40.48 | 3:05.40 | 138048 | 151962
14 | 33:46.13 | 2:48.40 | 151963 | 164602
15 | 36:34.53 | 2:34.61 | 164603 | 176213
16 | 39:09.39 | 2:26.34 | 176214 | 187197
17 | 41:35.73 | 1:59.64 | 187198 | 196186
18 | 43:35.62 | 2:42.16 | 196187 | 208352
19 | 46:18.03 | 2:26.64 | 208353 | 219366
20 | 48:44.67 | 2:54.01 | 219367 | 232417

?????????????? ????????? ?????????? ? ????????? ?? ???????

????????? ????????

??? ????? D:\??????? ?? torrents.ru\VA - Wow That Was The 60's 8 Cd Box Set,1999(lossless)\CD4\Various - WOW, that was the 60's (CD4'8).wav

??????? ??????? 99.9 %
0.1 X
???????? ????????? 100.0 %
CRC ????? DF9978BA
CRC ????? DF9978BA
???????????... OK

?????? ?? ?????????

AccurateRip: ??????

???? 1 ?????? ?????????? (??????? 2) [6BCC135F]
???? 2 ?????? ?????????? (??????? 2) [C00ED7EF]
???? 3 ?????? ?????????? (??????? 2) [F081B209]
???? 4 ?????? ?????????? (??????? 2) [EB50DA73]
???? 5 ?????? ?????????? (??????? 2) [F6C845F6]
???? 6 ?????? ?????????? (??????? 2) [15530CD0]
???? 7 ?????? ?????????? (??????? 2) [6D0EBA88]
???? 8 ?????? ?????????? (??????? 2) [D64025B6]
???? 9 ?????? ?????????? (??????? 2) [BD4290D1]
???? 10 ?????? ?????????? (??????? 2) [090F84CA]
???? 11 ?????? ?????????? (??????? 2) [1A00FA83]
???? 12 ?????? ?????????? (??????? 2) [04E1A076]
???? 13 ?????? ?????????? (??????? 2) [1E7BF20F]
???? 14 ?????? ?????????? (??????? 2) [95AE0DD8]
???? 15 ?????? ?????????? (??????? 2) [96F2A9CF]
???? 16 ?????? ?????????? (??????? 2) [B3CC8458]
???? 17 ?????? ?????????? (??????? 2) [4849E490]
???? 18 ?????? ?????????? (??????? 2) [C9F24152]
???? 19 ?????? ?????????? (??????? 2) [EBE18E12]
???? 20 ?????? ?????????? (??????? 2) [5FB6C359]

??? ????? ????????? ?????

????? ??????

CD 5:

Exact Audio Copy V1.0 beta 1 from 15. November 2010

????? EAC ?? ??????????, ??????????? 14. ??????? 2011, 0:27

Various / WOW, that was the 60's (CD5'8)

????????: HL-DT-STDVD-RAM GH22NP21 Adapter: 0 ID: 0

????? ?????? : ?????????????
????????????? ??????? ?????? : ??
?????????? ???? ????? : ??
????????????? ?????????? C2 : ???

????????? ???????? ??? ?????? : 102
??????????? ?????? ??????? Lead-in ? Lead-out : ???
?????????? ??????????? ??????? ??????? : ??
???????? ?????? ? ??????? ? ?????? ? ????? : ???
??? ??????????? CRC ?????????????? ??????? ?????? : ??
????????? : ?????????? Win32-????????? ??? Win NT/2000

???????? ?????? : ???????????????? ??????????
????????? ??????? : 1024 kBit/s
???????? : ???????
?????????? ID3-???? : ???
??????? ?????? : C:\Program Files\Exact Audio Copy\FLAC\FLAC.EXE
?????????????? ????????? : -8 -V -T "ARTIST=%a" -T "TITLE=%t" -T "ALBUM=%g" -T "DATE=%y" -T "TRACKNUMBER=%n" -T "GENRE=%m" -T "COMMENT=%e" %j--picture="%i"%j %s -o %d

TOC ???????????? CD

???? | ????? | ???????????? | ????????? ?????? | ???????? ??????
---------------------------------------------------------------------
1 | 0:00.00 | 2:28.09 | 0 | 11108
2 | 2:28.09 | 2:18.71 | 11109 | 21529
3 | 4:47.05 | 2:29.50 | 21530 | 32754
4 | 7:16.55 | 2:25.70 | 32755 | 43699
5 | 9:42.50 | 2:37.11 | 43700 | 55485
6 | 12:19.61 | 2:49.13 | 55486 | 68173
7 | 15:08.74 | 2:00.08 | 68174 | 77181
8 | 17:09.07 | 2:49.32 | 77182 | 89888
9 | 19:58.39 | 2:52.44 | 89889 | 102832
10 | 22:51.08 | 2:59.42 | 102833 | 116299
11 | 25:50.50 | 3:09.52 | 116300 | 130526
12 | 29:00.27 | 2:33.32 | 130527 | 142033
13 | 31:33.59 | 2:26.74 | 142034 | 153057
14 | 34:00.58 | 3:35.50 | 153058 | 169232
15 | 37:36.33 | 3:13.61 | 169233 | 183768
16 | 40:50.19 | 2:30.10 | 183769 | 195028
17 | 43:20.29 | 1:55.48 | 195029 | 203701
18 | 45:16.02 | 2:30.41 | 203702 | 214992
19 | 47:46.43 | 3:25.01 | 214993 | 230368
20 | 51:11.44 | 3:36.24 | 230369 | 246592

?????????????? ????????? ?????????? ? ????????? ?? ???????

????????? ????????

??? ????? D:\??????? ?? torrents.ru\VA - Wow That Was The 60's 8 Cd Box Set,1999(lossless)\CD5\Various - WOW, that was the 60's (CD5'8).wav

??????? ??????? 100.0 %
0.1 X
???????? ????????? 100.0 %
CRC ????? 11D32D0D
CRC ????? 11D32D0D
???????????... OK

?????? ?? ?????????

AccurateRip: ??????

???? 1 ?????? ?????????? (??????? 2) [497CE565]
???? 2 ?????? ?????????? (??????? 2) [4D4BD56D]
???? 3 ?????? ?????????? (??????? 2) [263F3B72]
???? 4 ?????? ?????????? (??????? 2) [CD9C26EA]
???? 5 ?????? ?????????? (??????? 3) [AE2F6372]
???? 6 ?????? ?????????? (??????? 2) [1CEB42D1]
???? 7 ?????? ?????????? (??????? 2) [EA3AFD58]
???? 8 ?????? ?????????? (??????? 2) [3E1F1EB0]
???? 9 ?????? ?????????? (??????? 2) [ABF6EA09]
???? 10 ?????? ?????????? (??????? 2) [2CF2D6A6]
???? 11 ?????? ?????????? (??????? 2) [1B535FDA]
???? 12 ?????? ?????????? (??????? 2) [9D66A44E]
???? 13 ?????? ?????????? (??????? 3) [ADC9354F]
???? 14 ?????? ?????????? (??????? 2) [F2DACEFB]
???? 15 ?????? ?????????? (??????? 2) [C2A82BAD]
???? 16 ?????? ?????????? (??????? 2) [105FA642]
???? 17 ?????? ?????????? (??????? 2) [43848700]
???? 18 ?????? ?????????? (??????? 2) [311852BD]
???? 19 ?????? ?????????? (??????? 2) [7B363805]
???? 20 ?????? ?????????? (??????? 2) [44FF7FC7]

??? ????? ????????? ?????

????? ??????

CD 6:

Exact Audio Copy V1.0 beta 1 from 15. November 2010

????? EAC ?? ??????????, ??????????? 14. ??????? 2011, 7:09

Various / WOW, that was the 60's (CD6'8)

????????: HL-DT-STDVD-RAM GH22NP21 Adapter: 0 ID: 0

????? ?????? : ?????????????
????????????? ??????? ?????? : ??
?????????? ???? ????? : ??
????????????? ?????????? C2 : ???

????????? ???????? ??? ?????? : 102
??????????? ?????? ??????? Lead-in ? Lead-out : ???
?????????? ??????????? ??????? ??????? : ??
???????? ?????? ? ??????? ? ?????? ? ????? : ???
??? ??????????? CRC ?????????????? ??????? ?????? : ??
????????? : ?????????? Win32-????????? ??? Win NT/2000

???????? ?????? : ???????????????? ??????????
????????? ??????? : 1024 kBit/s
???????? : ???????
?????????? ID3-???? : ???
??????? ?????? : C:\Program Files\Exact Audio Copy\FLAC\FLAC.EXE
?????????????? ????????? : -8 -V -T "ARTIST=%a" -T "TITLE=%t" -T "ALBUM=%g" -T "DATE=%y" -T "TRACKNUMBER=%n" -T "GENRE=%m" -T "COMMENT=%e" %j--picture="%i"%j %s -o %d

TOC ???????????? CD

???? | ????? | ???????????? | ????????? ?????? | ???????? ??????
---------------------------------------------------------------------
1 | 0:00.00 | 3:08.72 | 0 | 14171
2 | 3:08.72 | 2:54.46 | 14172 | 27267
3 | 6:03.43 | 2:44.44 | 27268 | 39611
4 | 8:48.12 | 2:48.34 | 39612 | 52245
5 | 11:36.46 | 3:21.14 | 52246 | 67334
6 | 14:57.60 | 2:58.35 | 67335 | 80719
7 | 17:56.20 | 2:43.54 | 80720 | 92998
8 | 20:39.74 | 2:37.60 | 92999 | 104833
9 | 23:17.59 | 3:11.24 | 104834 | 119182
10 | 26:29.08 | 3:49.53 | 119183 | 136410
11 | 30:18.61 | 2:54.28 | 136411 | 149488
12 | 33:13.14 | 3:28.38 | 149489 | 165126
13 | 36:41.52 | 2:13.18 | 165127 | 175119
14 | 38:54.70 | 2:35.40 | 175120 | 186784
15 | 41:30.35 | 4:41.71 | 186785 | 207930
16 | 46:12.31 | 2:54.63 | 207931 | 221043
17 | 49:07.19 | 2:17.72 | 221044 | 231390
18 | 51:25.16 | 2:33.51 | 231391 | 242916
19 | 53:58.67 | 3:34.68 | 242917 | 259034
20 | 57:33.60 | 2:51.57 | 259035 | 271916

?????????????? ????????? ?????????? ? ????????? ?? ???????

????????? ????????

??? ????? D:\??????? ?? torrents.ru\VA - Wow That Was The 60's 8 Cd Box Set,1999(lossless)\CD6\Various - WOW, that was the 60's (CD6'8).wav

??????? ??????? 99.9 %
0.1 X
???????? ????????? 100.0 %
CRC ????? E2EA098C
CRC ????? E2EA098C
???????????... OK

?????? ?? ?????????

AccurateRip: ??????

???? 1 ?????? ?????????? (??????? 2) [70597B8E]
???? 2 ?????? ?????????? (??????? 2) [B68A6847]
???? 3 ?????? ?????????? (??????? 2) [66552C32]
???? 4 ?????? ?????????? (??????? 2) [F4669A4A]
???? 5 ?????? ?????????? (??????? 2) [3FE8A077]
???? 6 ?????? ?????????? (??????? 2) [7077C447]
???? 7 ?????? ?????????? (??????? 2) [6E859468]
???? 8 ?????? ?????????? (??????? 2) [1CED5D97]
???? 9 ?????? ?????????? (??????? 2) [68262D75]
???? 10 ?????? ?????????? (??????? 2) [CAB8BDBF]
???? 11 ?????? ?????????? (??????? 2) [FC4920EA]
???? 12 ?????? ?????????? (??????? 2) [CA7C6B5A]
???? 13 ?????? ?????????? (??????? 2) [C5C3FA1F]
???? 14 ?????? ?????????? (??????? 2) [CCD437BD]
???? 15 ?????? ?????????? (??????? 2) [058764AB]
???? 16 ?????? ?????????? (??????? 2) [F9FD5AB7]
???? 17 ?????? ?????????? (??????? 2) [E095BB11]
???? 18 ?????? ?????????? (??????? 2) [673A03C5]
???? 19 ?????? ?????????? (??????? 2) [A1A26937]
???? 20 ?????? ?????????? (??????? 2) [874071EF]

??? ????? ????????? ?????

????? ??????

CD 7:

Exact Audio Copy V1.0 beta 1 from 15. November 2010

????? EAC ?? ??????????, ??????????? 14. ??????? 2011, 8:14

Various / WOW, that was the 60's (CD7'8)

????????: HL-DT-STDVD-RAM GH22NP21 Adapter: 0 ID: 0

????? ?????? : ?????????????
????????????? ??????? ?????? : ??
?????????? ???? ????? : ??
????????????? ?????????? C2 : ???

????????? ???????? ??? ?????? : 102
??????????? ?????? ??????? Lead-in ? Lead-out : ???
?????????? ??????????? ??????? ??????? : ??
???????? ?????? ? ??????? ? ?????? ? ????? : ???
??? ??????????? CRC ?????????????? ??????? ?????? : ??
????????? : ?????????? Win32-????????? ??? Win NT/2000

???????? ?????? : ???????????????? ??????????
????????? ??????? : 1024 kBit/s
???????? : ???????
?????????? ID3-???? : ???
??????? ?????? : C:\Program Files\Exact Audio Copy\FLAC\FLAC.EXE
?????????????? ????????? : -8 -V -T "ARTIST=%a" -T "TITLE=%t" -T "ALBUM=%g" -T "DATE=%y" -T "TRACKNUMBER=%n" -T "GENRE=%m" -T "COMMENT=%e" %j--picture="%i"%j %s -o %d

TOC ???????????? CD

???? | ????? | ???????????? | ????????? ?????? | ???????? ??????
---------------------------------------------------------------------
1 | 0:00.00 | 2:50.03 | 0 | 12752
2 | 2:50.03 | 3:39.54 | 12753 | 29231
3 | 6:29.57 | 2:36.42 | 29232 | 40973
4 | 9:06.24 | 2:55.06 | 40974 | 54104
5 | 12:01.30 | 3:24.33 | 54105 | 69437
6 | 15:25.63 | 3:16.01 | 69438 | 84138
7 | 18:41.64 | 3:38.29 | 84139 | 100517
8 | 22:20.18 | 2:23.11 | 100518 | 111253
9 | 24:43.29 | 2:45.58 | 111254 | 123686
10 | 27:29.12 | 2:31.32 | 123687 | 135043
11 | 30:00.44 | 2:29.24 | 135044 | 146242
12 | 32:29.68 | 2:57.23 | 146243 | 159540
13 | 35:27.16 | 2:45.06 | 159541 | 171921
14 | 38:12.22 | 3:58.29 | 171922 | 189800
15 | 42:10.51 | 5:01.59 | 189801 | 212434
16 | 47:12.35 | 1:57.72 | 212435 | 221281
17 | 49:10.32 | 2:50.17 | 221282 | 234048
18 | 52:00.49 | 4:19.33 | 234049 | 253506
19 | 56:20.07 | 6:24.02 | 253507 | 282308
20 | 62:44.09 | 3:08.62 | 282309 | 296470

?????????????? ????????? ?????????? ? ????????? ?? ???????

????????? ????????

??? ????? D:\??????? ?? torrents.ru\VA - Wow That Was The 60's 8 Cd Box Set,1999(lossless)\CD7\Various - WOW, that was the 60's (CD7'8).wav

??????? ??????? 99.9 %
0.1 X
???????? ????????? 100.0 %
CRC ????? 8A30743F
CRC ????? 8A30743F
???????????... OK

?????? ?? ?????????

AccurateRip: ??????

???? 1 ?????? ?????????? (??????? 2) [3042C05E]
???? 2 ?????? ?????????? (??????? 2) [B8DD6D78]
???? 3 ?????? ?????????? (??????? 2) [83AEE26B]
???? 4 ?????? ?????????? (??????? 2) [64313FF2]
???? 5 ?????? ?????????? (??????? 2) [A5C1C0F1]
???? 6 ?????? ?????????? (??????? 2) [705D9D5C]
???? 7 ?????? ?????????? (??????? 2) [ABDADA8D]
???? 8 ?????? ?????????? (??????? 2) [3DB49520]
???? 9 ?????? ?????????? (??????? 2) [945277B0]
???? 10 ?????? ?????????? (??????? 2) [E5E135E4]
???? 11 ?????? ?????????? (??????? 2) [816BAB1C]
???? 12 ?????? ?????????? (??????? 2) [396018E9]
???? 13 ?????? ?????????? (??????? 2) [66044F48]
???? 14 ?????? ?????????? (??????? 2) [7F9D87B6]
???? 15 ?????? ?????????? (??????? 2) [CE4262D7]
???? 16 ?????? ?????????? (??????? 2) [BECA04C6]
???? 17 ?????? ?????????? (??????? 2) [BFC1EDCA]
???? 18 ?????? ?????????? (??????? 2) [466938FA]
???? 19 ?????? ?????????? (??????? 2) [594538CB]
???? 20 ?????? ?????????? (??????? 2) [AA85CCAF]

??? ????? ????????? ?????

????? ??????

CD 8:

Exact Audio Copy V1.0 beta 1 from 15. November 2010

????? EAC ?? ??????????, ??????????? 14. ??????? 2011, 16:59

Various / Various - WOW, that was the 60's (CD8'8)

????????: HL-DT-STDVD-RAM GH22NP21 Adapter: 0 ID: 0

????? ?????? : ?????????????
????????????? ??????? ?????? : ??
?????????? ???? ????? : ??
????????????? ?????????? C2 : ???

????????? ???????? ??? ?????? : 102
??????????? ?????? ??????? Lead-in ? Lead-out : ???
?????????? ??????????? ??????? ??????? : ??
???????? ?????? ? ??????? ? ?????? ? ????? : ???
??? ??????????? CRC ?????????????? ??????? ?????? : ??
????????? : ?????????? Win32-????????? ??? Win NT/2000

???????? ?????? : ???????????????? ??????????
????????? ??????? : 1024 kBit/s
???????? : ???????
?????????? ID3-???? : ???
??????? ?????? : C:\Program Files\Exact Audio Copy\FLAC\FLAC.EXE
?????????????? ????????? : -8 -V -T "ARTIST=%a" -T "TITLE=%t" -T "ALBUM=%g" -T "DATE=%y" -T "TRACKNUMBER=%n" -T "GENRE=%m" -T "COMMENT=%e" %j--picture="%i"%j %s -o %d

TOC ???????????? CD

???? | ????? | ???????????? | ????????? ?????? | ???????? ??????
---------------------------------------------------------------------
1 | 0:00.00 | 4:16.10 | 0 | 19209
2 | 4:16.10 | 2:48.50 | 19210 | 31859
3 | 7:04.60 | 3:03.65 | 31860 | 45649
4 | 10:08.50 | 2:50.17 | 45650 | 58416
5 | 12:58.67 | 3:46.51 | 58417 | 75417
6 | 16:45.43 | 2:23.43 | 75418 | 86185
7 | 19:09.11 | 4:42.06 | 86186 | 107341
8 | 23:51.17 | 2:58.22 | 107342 | 120713
9 | 26:49.39 | 2:21.61 | 120714 | 131349
10 | 29:11.25 | 3:18.08 | 131350 | 146207
11 | 32:29.33 | 2:52.39 | 146208 | 159146
12 | 35:21.72 | 4:35.43 | 159147 | 179814
13 | 39:57.40 | 2:51.23 | 179815 | 192662
14 | 42:48.63 | 3:33.17 | 192663 | 208654
15 | 46:22.05 | 3:11.49 | 208655 | 223028
16 | 49:33.54 | 2:29.16 | 223029 | 234219
17 | 52:02.70 | 2:55.43 | 234220 | 247387
18 | 54:58.38 | 2:42.02 | 247388 | 259539
19 | 57:40.40 | 2:15.08 | 259540 | 269672
20 | 59:55.48 | 3:48.25 | 269673 | 286797

?????????????? ????????? ?????????? ? ????????? ?? ???????

????????? ????????

??? ????? D:\??????? ?? torrents.ru\VA - Wow That Was The 60's 8 Cd Box Set,1999(lossless)\CD8\Various - Various - WOW, that was the 60's (CD8'8).wav

??????? ??????? 99.9 %
0.1 X
???????? ????????? 100.0 %
CRC ????? 869AF3B1
CRC ????? 869AF3B1
???????????... OK

?????? ?? ?????????

AccurateRip: ??????

???? 1 ?????? ?????????? (??????? 2) [EBC6301F]
???? 2 ?????? ?????????? (??????? 2) [067E4B45]
???? 3 ?????? ?????????? (??????? 2) [0BD822AD]
???? 4 ?????? ?????????? (??????? 2) [27E3F50E]
???? 5 ?????? ?????????? (??????? 2) [E5068BFF]
???? 6 ?????? ?????????? (??????? 2) [EA8ABAB1]
???? 7 ?????? ?????????? (??????? 2) [F4AFF2AF]
???? 8 ?????? ?????????? (??????? 2) [93768A70]
???? 9 ?????? ?????????? (??????? 2) [C1186B17]
???? 10 ?????? ?????????? (??????? 2) [516E3D2D]
???? 11 ?????? ?????????? (??????? 2) [91264A61]
???? 12 ?????? ?????????? (??????? 2) [A7B9A120]
???? 13 ?????? ?????????? (??????? 2) [21AB9ABD]
???? 14 ?????? ?????????? (??????? 2) [9900C5AD]
???? 15 ?????? ?????????? (??????? 2) [404018F8]
???? 16 ?????? ?????????? (??????? 2) [E19E3874]
???? 17 ?????? ?????????? (??????? 2) [5027CA3F]
???? 18 ?????? ?????????? (??????? 2) [7EA3E2FA]
???? 19 ?????? ?????????? (??????? 2) [987004D8]
???? 20 ?????? ?????????? (??????? 2) [796A0FC9]

??? ????? ????????? ?????

????? ??????

Cue:

CD 1:

REM GENRE Pop
REM DATE 1999
REM DISCID 190B5714
REM COMMENT "ExactAudioCopy v1.0b1"
PERFORMER "Various"
TITLE "Wow, that was the 60's (CD1'8)"
FILE "Various - Wow, that was the 60's (CD1'8).flac" WAVE
TRACK 01 AUDIO
TITLE "Shakin' all over"
PERFORMER "Johnny Kidd and The Pirates"
INDEX 01 00:00:00
TRACK 02 AUDIO
TITLE "Poor me"
PERFORMER "Adam Faith"
INDEX 00 02:18:63
INDEX 01 02:20:43
TRACK 03 AUDIO
TITLE "Walking back to happiness"
PERFORMER "Helen Shapiro"
INDEX 00 04:05:11
INDEX 01 04:06:66
TRACK 04 AUDIO
TITLE "Three steps to heaven"
PERFORMER "Eddie Cochran"
INDEX 00 06:36:11
INDEX 01 06:37:66
TRACK 05 AUDIO
TITLE "Rubber ball"
PERFORMER "Bobby Vee"
INDEX 00 08:59:35
INDEX 01 09:01:15
TRACK 06 AUDIO
TITLE "Tell Laura I love her"
PERFORMER "Ricky Valance"
INDEX 00 11:18:44
INDEX 01 11:20:24
TRACK 07 AUDIO
TITLE "Runaway"
PERFORMER "Del Shannon"
INDEX 00 13:58:32
INDEX 01 14:00:12
TRACK 08 AUDIO
TITLE "Runaround Sue"
PERFORMER "Dion"
INDEX 00 16:18:22
INDEX 01 16:20:02
TRACK 09 AUDIO
TITLE "Will you love me tomorrow"
PERFORMER "The Shirelles"
INDEX 00 18:54:13
INDEX 01 18:55:68
TRACK 10 AUDIO
TITLE "The loco-motion"
PERFORMER "Little Eva"
INDEX 00 21:37:07
INDEX 01 21:38:62
TRACK 11 AUDIO
TITLE "Walk don't run"
PERFORMER "Ventures"
INDEX 00 24:01:08
INDEX 01 24:02:64
TRACK 12 AUDIO
TITLE "Ain't misbehavin'"
PERFORMER "Tommy Bruce and The Bruisers"
INDEX 00 26:05:18
INDEX 01 26:06:73
TRACK 13 AUDIO
TITLE "Michael row the boat ashore"
PERFORMER "Highwaymen"
INDEX 00 28:13:48
INDEX 01 28:15:27
TRACK 14 AUDIO
TITLE "Don't ever change"
PERFORMER "Crickets"
INDEX 00 30:57:61
INDEX 01 30:59:41
TRACK 15 AUDIO
TITLE "Up on the roof"
PERFORMER "Kenny Lynch"
INDEX 00 33:12:73
INDEX 01 33:14:53
TRACK 16 AUDIO
TITLE "Johnny remember me"
PERFORMER "John Leyton"
INDEX 00 35:49:67
INDEX 01 35:51:47
TRACK 17 AUDIO
TITLE "Telstar"
PERFORMER "Tornados"
INDEX 00 38:30:28
INDEX 01 38:32:08
TRACK 18 AUDIO
TITLE "Apache"
PERFORMER "Shadows"
INDEX 00 41:47:52
INDEX 01 41:49:32
TRACK 19 AUDIO
TITLE "How do you do it?"
PERFORMER "Gerry and The Pacemakers"
INDEX 00 44:42:20
INDEX 01 44:44:00
TRACK 20 AUDIO
TITLE "Hippy hippy shake"
PERFORMER "Swinging Blue Jeans"
INDEX 00 46:37:15
INDEX 01 46:38:70

CD 2:

REM GENRE Pop
REM DATE 1999
REM DISCID 1C0A4914
REM COMMENT "ExactAudioCopy v1.0b1"
PERFORMER "various"
TITLE "WOW, that was the 60's (CD2'8)"
FILE "various - WOW, that was the 60's (CD2'8).flac" WAVE
TRACK 01 AUDIO
TITLE "If you gotta make a fool of somebody"
PERFORMER "Freddie & The Dreamers"
INDEX 01 00:00:00
TRACK 02 AUDIO
TITLE "Do you want to know a secret"
PERFORMER "Billy J. Kramer & The Dakotas"
INDEX 00 01:56:66
INDEX 01 01:58:46
TRACK 03 AUDIO
TITLE "Kon-tiki"
PERFORMER "The Shadows"
INDEX 00 03:57:50
INDEX 01 03:59:30
TRACK 04 AUDIO
TITLE "Someone else's baby"
PERFORMER "Adam Faith"
INDEX 00 05:51:32
INDEX 01 05:53:12
TRACK 05 AUDIO
TITLE "Run to him"
PERFORMER "Bobby Vee"
INDEX 00 07:55:31
INDEX 01 07:57:11
TRACK 06 AUDIO
TITLE "Perfidia"
PERFORMER "The Ventures"
INDEX 00 10:05:18
INDEX 01 10:06:73
TRACK 07 AUDIO
TITLE "My little girl"
PERFORMER "The Crickets"
INDEX 00 12:10:03
INDEX 01 12:11:58
TRACK 08 AUDIO
TITLE "Weekend"
PERFORMER "Eddie Cochran"
INDEX 00 14:07:13
INDEX 01 14:08:68
TRACK 09 AUDIO
TITLE "The wanderer"
PERFORMER "Dion"
INDEX 00 15:54:62
INDEX 01 15:56:42
TRACK 10 AUDIO
TITLE "Hey baby"
PERFORMER "Bruce Channel"
INDEX 00 18:38:45
INDEX 01 18:40:26
TRACK 11 AUDIO
TITLE "Hey Paula"
PERFORMER "Paul & Paula"
INDEX 00 21:01:66
INDEX 01 21:03:45
TRACK 12 AUDIO
TITLE "The night has a thousand eyes"
PERFORMER "Bobby Vee"
INDEX 00 23:30:56
INDEX 01 23:32:36
TRACK 13 AUDIO
TITLE "He's so fine"
PERFORMER "The Chiffons"
INDEX 00 26:05:43
INDEX 01 26:07:23
TRACK 14 AUDIO
TITLE "The cruel sea"
PERFORMER "The Dakotas"
INDEX 00 28:00:45
INDEX 01 28:02:25
TRACK 15 AUDIO
TITLE "Charmaine"
PERFORMER "The Bachelors"
INDEX 00 30:15:30
INDEX 01 30:17:10
TRACK 16 AUDIO
TITLE "Wonderful land"
PERFORMER "The Shadows"
INDEX 00 32:50:31
INDEX 01 32:52:11
TRACK 17 AUDIO
TITLE "Johnny comes marching home"
PERFORMER "Adam Faith"
INDEX 00 34:53:03
INDEX 01 34:54:58
TRACK 18 AUDIO
TITLE "Queen for tonight"
PERFORMER "Helen Shapiro"
INDEX 00 36:54:39
INDEX 01 36:56:19
TRACK 19 AUDIO
TITLE "I'll never get over you"
PERFORMER "Johnny Kidd & The Pirates"
INDEX 00 39:04:49
INDEX 01 39:06:29
TRACK 20 AUDIO
TITLE "You'll never walk alone"
PERFORMER "Gerry & The Pacemakers"
INDEX 00 41:12:31
INDEX 01 41:14:11

CD 3:

REM GENRE Rock
REM DATE 1999
REM DISCID 180BD814
REM COMMENT "ExactAudioCopy v1.0b1"
PERFORMER "various"
TITLE "WOW, that was the 60's (CD3'8)"
FILE "various - WOW, that was the 60's (CD3'8).flac" WAVE
TRACK 01 AUDIO
TITLE "Foot tapper"
PERFORMER "The Shadows"
INDEX 01 00:00:00
TRACK 02 AUDIO
TITLE "You were made for me"
PERFORMER "Freddie & The Dreamers"
INDEX 00 02:32:53
INDEX 01 02:34:33
TRACK 03 AUDIO
TITLE "Bad to me"
PERFORMER "Billy J. Kramer & The Dakotas"
INDEX 00 04:51:60
INDEX 01 04:53:40
TRACK 04 AUDIO
TITLE "Needles and pins"
PERFORMER "The Searchers"
INDEX 00 07:12:27
INDEX 01 07:14:06
TRACK 05 AUDIO
TITLE "5-4-3-2-1"
PERFORMER "Manfred Mann"
INDEX 00 09:25:00
INDEX 01 09:26:55
TRACK 06 AUDIO
TITLE "Good golly miss Molly"
PERFORMER "The Swinging Blue Jeans"
INDEX 00 11:24:01
INDEX 01 11:25:56
TRACK 07 AUDIO
TITLE "Baby I need your lovin"
PERFORMER "Fourmost"
INDEX 00 13:29:74
INDEX 01 13:31:54
TRACK 08 AUDIO
TITLE "One way love"
PERFORMER "Cliff Bennett & The Rebell Rousers"
INDEX 00 15:57:64
INDEX 01 15:59:44
TRACK 09 AUDIO
TITLE "A world without love"
PERFORMER "Peter & Gordon"
INDEX 00 18:18:73
INDEX 01 18:20:53
TRACK 10 AUDIO
TITLE "Don't let the sun catch you crying"
PERFORMER "Gerry & The Pacemakers"
INDEX 00 20:59:57
INDEX 01 21:01:37
TRACK 11 AUDIO
TITLE "She's not there"
PERFORMER "Zombies"
INDEX 00 23:35:56
INDEX 01 23:37:36
TRACK 12 AUDIO
TITLE "Surf city"
PERFORMER "Jan & Dean"
INDEX 00 25:59:17
INDEX 01 26:00:72
TRACK 13 AUDIO
TITLE "Together"
PERFORMER "P.J. Proby"
INDEX 00 28:41:61
INDEX 01 28:43:41
TRACK 14 AUDIO
TITLE "Little town flirt"
PERFORMER "Del Shannon"
INDEX 00 31:16:26
INDEX 01 31:18:06
TRACK 15 AUDIO
TITLE "Talk back tremblin' lips"
PERFORMER "Johnny Tillotson"
INDEX 00 34:01:40
INDEX 01 34:03:20
TRACK 16 AUDIO
TITLE "La bamba"
PERFORMER "The Crickets"
INDEX 00 36:39:16
INDEX 01 36:40:71
TRACK 17 AUDIO
TITLE "Poison ivy"
PERFORMER "Paramounts"
INDEX 00 39:22:33
INDEX 01 39:24:13
TRACK 18 AUDIO
TITLE "Dance on"
PERFORMER "The Shadows"
INDEX 00 41:30:34
INDEX 01 41:32:14
TRACK 19 AUDIO
TITLE "I'm telling you now"
PERFORMER "Freddie & The Dreamers"
INDEX 00 43:53:34
INDEX 01 43:55:14
TRACK 20 AUDIO
TITLE "The house of the rising sun"
PERFORMER "The Animals"
INDEX 00 46:02:10
INDEX 01 46:03:65

CD 4:

REM GENRE Pop
REM DATE 1999
REM DISCID 160C1A14
REM COMMENT "ExactAudioCopy v1.0b1"
PERFORMER "Various"
TITLE "WOW, that was the 60's (CD4'8)"
FILE "Various - WOW, that was the 60's (CD4'8).flac" WAVE
TRACK 01 AUDIO
TITLE "Just one look"
PERFORMER "The Hollies"
INDEX 01 00:00:00
TRACK 02 AUDIO
TITLE "I'm into something good"
PERFORMER "Herman's Hermits"
INDEX 00 02:27:71
INDEX 01 02:29:51
TRACK 03 AUDIO
TITLE "Don't throw your love away"
PERFORMER "The Searchers"
INDEX 00 05:00:30
INDEX 01 05:02:10
TRACK 04 AUDIO
TITLE "Little children"
PERFORMER "Billy J. Kramer & The Dakotas"
INDEX 00 07:16:12
INDEX 01 07:17:67
TRACK 05 AUDIO
TITLE "Ferry across The Mersey"
PERFORMER "Gerry & The Pacemakers"
INDEX 00 10:03:36
INDEX 01 10:05:16
TRACK 06 AUDIO
TITLE "A little loving"
PERFORMER "Fourmost"
INDEX 00 12:27:69
INDEX 01 12:29:49
TRACK 07 AUDIO
TITLE "Somewhere"
PERFORMER "P.J. Proby"
INDEX 00 14:34:18
INDEX 01 14:35:73
TRACK 08 AUDIO
TITLE "You're no good"
PERFORMER "The Swinging Blue Jeans"
INDEX 00 17:51:58
INDEX 01 17:53:38
TRACK 09 AUDIO
TITLE "Anyone who had a heart"
PERFORMER "Cilla Black"
INDEX 00 20:08:66
INDEX 01 20:10:45
TRACK 10 AUDIO
TITLE "Do wah diddy"
PERFORMER "Manfred Mann"
INDEX 00 22:59:45
INDEX 01 23:01:26
TRACK 11 AUDIO
TITLE "True love ways"
PERFORMER "Peter & Gordon"
INDEX 00 25:22:67
INDEX 01 25:24:47
TRACK 12 AUDIO
TITLE "A lovers concerto"
PERFORMER "Toys"
INDEX 00 28:01:19
INDEX 01 28:02:74
TRACK 13 AUDIO
TITLE "Hang on Sloopy"
PERFORMER "The McCoys"
INDEX 00 30:38:68
INDEX 01 30:40:48
TRACK 14 AUDIO
TITLE "Leader of the pack"
PERFORMER "Shangri-Las"
INDEX 00 33:44:33
INDEX 01 33:46:13
TRACK 15 AUDIO
TITLE "I understand (just how you feel)"
PERFORMER "Freddy & The Dreamers"
INDEX 00 36:32:74
INDEX 01 36:34:53
TRACK 16 AUDIO
TITLE "Tobacco road"
PERFORMER "Nashville Teens"
INDEX 00 39:07:59
INDEX 01 39:09:39
TRACK 17 AUDIO
TITLE "Silhouettes"
PERFORMER "Herman's Hermits"
INDEX 00 41:34:17
INDEX 01 41:35:73
TRACK 18 AUDIO
TITLE "Hold me"
PERFORMER "P.J. Proby"
INDEX 00 43:34:07
INDEX 01 43:35:62
TRACK 19 AUDIO
TITLE "Tossin' and turnin'"
PERFORMER "Ivy League"
INDEX 00 46:16:23
INDEX 01 46:18:03
TRACK 20 AUDIO
TITLE "Catch the wind"
PERFORMER "Donovan"
INDEX 00 48:43:12
INDEX 01 48:44:67

CD 5:

REM GENRE Oldies
REM DATE 1999
REM DISCID 010CD714
REM COMMENT "ExactAudioCopy v1.0b1"
PERFORMER "Various"
TITLE "WOW, that was the 60's (CD5'8)"
FILE "Various - WOW, that was the 60's (CD5'8).flac" WAVE
TRACK 01 AUDIO
TITLE "Don't let me be misunderstood"
PERFORMER "The Animals"
INDEX 01 00:00:00
TRACK 02 AUDIO
TITLE "For your love"
PERFORMER "The Yardbirds"
INDEX 00 02:26:29
INDEX 01 02:28:09
TRACK 03 AUDIO
TITLE "If you gotta go, go now"
PERFORMER "Manfred Mann"
INDEX 00 04:45:25
INDEX 01 04:47:05
TRACK 04 AUDIO
TITLE "I'm alive"
PERFORMER "The Hollies"
INDEX 00 07:15:00
INDEX 01 07:16:55
TRACK 05 AUDIO
TITLE "To know you is to love you"
PERFORMER "Peter & Gordon"
INDEX 00 09:40:71
INDEX 01 09:42:50
TRACK 06 AUDIO
TITLE "Trains and boats and planes"
PERFORMER "Billy J. Kramer & The Dakotas"
INDEX 00 12:18:06
INDEX 01 12:19:61
TRACK 07 AUDIO
TITLE "Wonderful world"
PERFORMER "Herman's Hermits"
INDEX 00 15:07:19
INDEX 01 15:08:74
TRACK 08 AUDIO
TITLE "Yesterday"
PERFORMER "Matt Monro"
INDEX 00 17:07:26
INDEX 01 17:09:07
TRACK 09 AUDIO
TITLE "The sound of silence"
PERFORMER "The Bachelors"
INDEX 00 19:56:59
INDEX 01 19:58:39
TRACK 10 AUDIO
TITLE "You're my world (il mio mondo)"
PERFORMER "Cilla Black"
INDEX 00 22:49:27
INDEX 01 22:51:08
TRACK 11 AUDIO
TITLE "The carnival is over"
PERFORMER "The Seekers"
INDEX 00 25:48:70
INDEX 01 25:50:50
TRACK 12 AUDIO
TITLE "Got to get you into my life"
PERFORMER "Cliff Bennett & The Rebel Rousers"
INDEX 00 28:58:48
INDEX 01 29:00:27
TRACK 13 AUDIO
TITLE "Sweet talking guy"
PERFORMER "The Chiffons"
INDEX 00 31:32:04
INDEX 01 31:33:59
TRACK 14 AUDIO
TITLE "Think"
PERFORMER "Chris Farlowe"
INDEX 00 33:59:03
INDEX 01 34:00:58
TRACK 15 AUDIO
TITLE "We've gotta get out of this place"
PERFORMER "The Animals"
INDEX 00 37:34:53
INDEX 01 37:36:33
TRACK 16 AUDIO
TITLE "Sha la la"
PERFORMER "Manfred Mann"
INDEX 00 40:48:39
INDEX 01 40:50:19
TRACK 17 AUDIO
TITLE "A must to avoid"
PERFORMER "Herman's Hermits"
INDEX 00 43:18:49
INDEX 01 43:20:29
TRACK 18 AUDIO
TITLE "Super girl"
PERFORMER "Graham Bonney"
INDEX 00 45:14:22
INDEX 01 45:16:02
TRACK 19 AUDIO
TITLE "Little misunderstood"
PERFORMER "Rod Stewart"
INDEX 00 47:44:63
INDEX 01 47:46:43
TRACK 20 AUDIO
TITLE "Good vibrations"
PERFORMER "The Beach Boys"
INDEX 00 51:09:64
INDEX 01 51:11:44

CD 6:

REM GENRE Oldies
REM DATE 1999
REM DISCID 330E2914
REM COMMENT "ExactAudioCopy v1.0b1"
PERFORMER "Various"
TITLE "WOW, that was the 60's (CD6'8)"
FILE "Various - WOW, that was the 60's (CD6'8).flac" WAVE
TRACK 01 AUDIO
TITLE "Silence is golden"
PERFORMER "The Tremeloes"
INDEX 01 00:00:00
TRACK 02 AUDIO
TITLE "Bus stop"
PERFORMER "The Hollies"
INDEX 00 03:07:17
INDEX 01 03:08:72
TRACK 03 AUDIO
TITLE "Bang bang (my baby shot me down)"
PERFORMER "Cher"
INDEX 00 06:01:62
INDEX 01 06:03:43
TRACK 04 AUDIO
TITLE "God only knows"
PERFORMER "The Beach Boys"
INDEX 00 08:46:32
INDEX 01 08:48:12
TRACK 05 AUDIO
TITLE "Tin soldier"
PERFORMER "Small Faces"
INDEX 00 11:34:66
INDEX 01 11:36:46
TRACK 06 AUDIO
TITLE "No milk today"
PERFORMER "Herman's Hermits"
INDEX 00 14:56:05
INDEX 01 14:57:60
TRACK 07 AUDIO
TITLE "Come tomorrow"
PERFORMER "Manfred Mann"
INDEX 00 17:54:40
INDEX 01 17:56:20
TRACK 08 AUDIO
TITLE "Yesterdays papers"
PERFORMER "Chris Farlowe"
INDEX 00 20:38:19
INDEX 01 20:39:74
TRACK 09 AUDIO
TITLE "The house that Jack built"
PERFORMER "Alan Price"
INDEX 00 23:16:04
INDEX 01 23:17:59
TRACK 10 AUDIO
TITLE "Kites"
PERFORMER "Simon Dupree & The Big Sound"
INDEX 00 26:27:29
INDEX 01 26:29:08
TRACK 11 AUDIO
TITLE "It won't be wrong"
PERFORMER "The Byrds"
INDEX 00 30:17:06
INDEX 01 30:18:61
TRACK 12 AUDIO
TITLE "Crimson and clover"
PERFORMER "Tommy James & The Shondells"
INDEX 00 33:11:34
INDEX 01 33:13:14
TRACK 13 AUDIO
TITLE "High time"
PERFORMER "Paul Jones"
INDEX 00 36:39:72
INDEX 01 36:41:52
TRACK 14 AUDIO
TITLE "There's a kind of hush"
PERFORMER "Herman's Hermits"
INDEX 00 38:53:15
INDEX 01 38:54:70
TRACK 15 AUDIO
TITLE "Excerpt from a teenage opera"
PERFORMER "Keith West"
INDEX 00 41:28:54
INDEX 01 41:30:35
TRACK 16 AUDIO
TITLE "Happy together"
PERFORMER "The Turtles"
INDEX 00 46:10:51
INDEX 01 46:12:31
TRACK 17 AUDIO
TITLE "Georgy girl"
PERFORMER "The Seekers"
INDEX 00 49:05:39
INDEX 01 49:07:19
TRACK 18 AUDIO
TITLE "Pretty flamingo"
PERFORMER "Manfred Mann"
INDEX 00 51:23:36
INDEX 01 51:25:16
TRACK 19 AUDIO
TITLE "Paint it black"
PERFORMER "Chris Farlowe"
INDEX 00 53:57:12
INDEX 01 53:58:67
TRACK 20 AUDIO
TITLE "Hi ho silver lining"
PERFORMER "Jeff Beck"
INDEX 00 57:32:05
INDEX 01 57:33:60

CD 7:

REM GENRE Oldies
REM DATE 1999
REM DISCID 100F7014
REM COMMENT "ExactAudioCopy v1.0b1"
PERFORMER "Various"
TITLE "WOW, that was the 60's (CD7'8)"
FILE "Various - WOW, that was the 60's (CD7'8).flac" WAVE
TRACK 01 AUDIO
TITLE "Itchycoo park"
PERFORMER "Small Faces"
INDEX 01 00:00:00
TRACK 02 AUDIO
TITLE "Let's go to San Francisco"
PERFORMER "The Flowerpot Men"
INDEX 00 02:48:23
INDEX 01 02:50:03
TRACK 03 AUDIO
TITLE "Even the bad times are good"
PERFORMER "The Tremeloes"
INDEX 00 06:28:02
INDEX 01 06:29:57
TRACK 04 AUDIO
TITLE "Carrie Anne"
PERFORMER "The Hollies"
INDEX 00 09:04:44
INDEX 01 09:06:24
TRACK 05 AUDIO
TITLE "Handbags and gladrags"
PERFORMER "Chris Farlowe"
INDEX 00 11:59:50
INDEX 01 12:01:30
TRACK 06 AUDIO
TITLE "The first cut is the deepest"
PERFORMER "P.P. Arnold"
INDEX 00 15:24:08
INDEX 01 15:25:63
TRACK 07 AUDIO
TITLE "Heroes and villains"
PERFORMER "The Beach Boys"
INDEX 00 18:40:08
INDEX 01 18:41:64
TRACK 08 AUDIO
TITLE "I've been a bad bad boy"
PERFORMER "Paul Jones"
INDEX 00 22:18:38
INDEX 01 22:20:18
TRACK 09 AUDIO
TITLE "Mrs. Brown you've got a lovely daughter"
PERFORMER "Herman's Hermits"
INDEX 00 24:41:49
INDEX 01 24:43:29
TRACK 10 AUDIO
TITLE "Thank u very much"
PERFORMER "Scaffold"
INDEX 00 27:27:32
INDEX 01 27:29:12
TRACK 11 AUDIO
TITLE "Elenore"
PERFORMER "The Turtles"
INDEX 00 29:58:64
INDEX 01 30:00:44
TRACK 12 AUDIO
TITLE "I can't let Maggie go"
PERFORMER "Honeybus"
INDEX 00 32:28:13
INDEX 01 32:29:68
TRACK 13 AUDIO
TITLE "I'm a tiger"
PERFORMER "Lulu"
INDEX 00 35:25:37
INDEX 01 35:27:16
TRACK 14 AUDIO
TITLE "Honey"
PERFORMER "Bobby Goldsboro"
INDEX 00 38:10:42
INDEX 01 38:12:22
TRACK 15 AUDIO
TITLE "On the road again"
PERFORMER "Canned Heat"
INDEX 00 42:08:71
INDEX 01 42:10:51
TRACK 16 AUDIO
TITLE "Sumertime blues"
PERFORMER "Eddy Cochran"
INDEX 00 47:10:54
INDEX 01 47:12:35
TRACK 17 AUDIO
TITLE "Spooky"
PERFORMER "Classics IV"
INDEX 00 49:08:52
INDEX 01 49:10:32
TRACK 18 AUDIO
TITLE "Lily the pink"
PERFORMER "Scaffold"
INDEX 00 51:58:69
INDEX 01 52:00:49
TRACK 19 AUDIO
TITLE "America"
PERFORMER "The Nice"
INDEX 00 56:18:27
INDEX 01 56:20:07
TRACK 20 AUDIO
TITLE "Pictures of matchstick men"
PERFORMER "Status Quo"
INDEX 00 62:42:29
INDEX 01 62:44:09

CD 8:

REM GENRE pop
REM DATE 1999
REM DISCID 080EEF14
REM COMMENT "ExactAudioCopy v1.0b1"
PERFORMER "Various"
TITLE "Various - WOW, that was the 60's (CD8'8)"
FILE "Various - Various - WOW, that was the 60's (CD8'8).flac" WAVE
TRACK 01 AUDIO
TITLE "Humble Pie - Natural Born Boogie"
PERFORMER "Humble Pie - Natural Born Boogie"
INDEX 01 00:00:00
TRACK 02 AUDIO
TITLE "Amen Corner - (If Paradise Is) Half As Nice"
PERFORMER "Amen Corner - (If Paradise Is) Half As Nice"
INDEX 00 04:14:30
INDEX 01 04:16:10
TRACK 03 AUDIO
TITLE "Small Faces - Lazy Sunday"
PERFORMER "Small Faces - Lazy Sunday"
INDEX 00 07:03:05
INDEX 01 07:04:60
TRACK 04 AUDIO
TITLE "Fleetwood Mac - Man Of The World"
PERFORMER "Fleetwood Mac - Man Of The World"
INDEX 00 10:06:69
INDEX 01 10:08:50
TRACK 05 AUDIO
TITLE "The Tremeloes - (Call Me) Number One"
PERFORMER "The Tremeloes - (Call Me) Number One"
INDEX 00 12:57:12
INDEX 01 12:58:67
TRACK 06 AUDIO
TITLE "Bonzo Dog Doo-Dah Band - I'm The Urban Spaceman"
PERFORMER "Bonzo Dog Doo-Dah Band - I'm The Urban Spaceman"
INDEX 00 16:43:63
INDEX 01 16:45:43
TRACK 07 AUDIO
TITLE "Peter Sarstedt - Where Do You Go To My Lovely"
PERFORMER "Peter Sarstedt - Where Do You Go To My Lovely"
INDEX 00 19:07:31
INDEX 01 19:09:11
TRACK 08 AUDIO
TITLE "The Foundations - Build Me Up Buttercup"
PERFORMER "The Foundations - Build Me Up Buttercup"
INDEX 00 23:49:37
INDEX 01 23:51:17
TRACK 09 AUDIO
TITLE "Lulu - Boom Bang-A-Bang"
PERFORMER "Lulu - Boom Bang-A-Bang"
INDEX 00 26:47:59
INDEX 01 26:49:39
TRACK 10 AUDIO
TITLE "Herman's Hermits - My Sentimental Friend"
PERFORMER "Herman's Hermits - My Sentimental Friend"
INDEX 00 29:09:45
INDEX 01 29:11:25
TRACK 11 AUDIO
TITLE "Tommy James & The Shondells - Mony Mony "
PERFORMER "Tommy James & The Shondells - Mony Mony "
INDEX 00 32:27:53
INDEX 01 32:29:33
TRACK 12 AUDIO
TITLE "The Band - The Weight"
PERFORMER "The Band - The Weight"
INDEX 00 35:20:16
INDEX 01 35:21:72
TRACK 13 AUDIO
TITLE "Canned Heat - Goin' Up The Country"
PERFORMER "Canned Heat - Goin' Up The Country"
INDEX 00 39:55:60
INDEX 01 39:57:40
TRACK 14 AUDIO
TITLE "Joe South - Games People Play"
PERFORMER "Joe South - Games People Play"
INDEX 00 42:47:08
INDEX 01 42:48:63
TRACK 15 AUDIO
TITLE "Jimmy Cliff - Wonderful World, Beautiful People"
PERFORMER "Jimmy Cliff - Wonderful World, Beautiful People"
INDEX 00 46:20:25
INDEX 01 46:22:05
TRACK 16 AUDIO
TITLE "Desmond Dekker - The Israelites"
PERFORMER "Desmond Dekker - The Israelites"
INDEX 00 49:32:00
INDEX 01 49:33:54
TRACK 17 AUDIO
TITLE "Amen Corner - Hello Susie"
PERFORMER "Amen Corner - Hello Susie"
INDEX 00 52:01:15
INDEX 01 52:02:70
TRACK 18 AUDIO
TITLE "Paul Jones - Aquarius"
PERFORMER "Paul Jones - Aquarius"
INDEX 00 54:56:58
INDEX 01 54:58:38
TRACK 19 AUDIO
TITLE "The Beach Boys - Do It Again"
PERFORMER "The Beach Boys - Do It Again"
INDEX 00 57:38:60
INDEX 01 57:40:40
TRACK 20 AUDIO
TITLE "Blue Mink - Melting Pot."
PERFORMER "Blue Mink - Melting Pot."
INDEX 00 59:53:68
INDEX 01 59:55:48

Format: FLAC
Bitrate: lossless
Größe: 2,61 GB

Download

Share-Online, Uploaded

Share-Links

Share-Links.biz

Linkcrypt

Linkcrypt.ws // Key-Captcha

Nur 1x gepackt, kein Passwort, Mirror kompatibel





[Mix] VA - New Age Style - Enigmatic 1-19