Eh mec, elle est où ma caisse ?

Eh mec, elle est où ma caisse ? Qualité HDLight 720p | FRENCH Origine : Américain Réalisation : Danny Leiner Durée : 1h 24min Acteur(s) : Ashton Kutcher,Seann William Scott,Jennifer Garner Genre : Comédie,Science fiction Date de sortie : 18 avril 2001(1h 24min)Année de production : 2000 Distributeur : UFD Titre original : Dude, Where's My Car? Critiques Spectateurs : 2,3 Critiques Presse : Aucune information ... Bande annonce : [allocine]159[/allocine] Cliquez ici pour visualiser la bande annonce Jesse et Chester, deux fêtards d'une vingtaine d'années, ont passé une nuit incroyable. Malheureusement, à leur réveil, ils ne se rappellent plus de rien, y compris de l'endroit où ils ont garé leur voiture. Or, celle-ci contenait les précieux cadeaux d'anniversaire qu'ils avaient achetés pour leurs petites amies jumelles, Wanda et Wilma. Jesse et Chester ont beau leur expliquer que le véhicule, où se trouvaient les cadeaux, a disparu, elles ne veulent rien entendre. Une seule solution s'offre à eux : retourner sur leurs pas afin d'enquêter sur les événements de la veille et la disparition de leur voiture. Il s'est forcément passé quelque chose de spécial pour qu'ils n'aient plus souvenir de quoi que ce soit. Et comment se fait-il qu'ils soient devenus les coqueluches de toutes les filles ? NFO  Afficher / Masquer le texteGeneral Unique ID : 5688344204260589190882040438680235836 (0x4478905BB1CBD2B6776D788E768AF3C) Complete name : F:\Dude Where s My Car 2000 FRENCH 720p mHD AC3 x264-HTG Format : Matroska Format version : Version 2 File size : 1.53 GiB Duration : 1 h 23 min Overall bit rate : 2 629 kb/s Writing application : HandBrake 0.9.9 Writing library : libmkv 0.6.5 Video ID : 1 Format : AVC Format/Info : Advanced Video Codec Format profile : [email protected] Format settings, CABAC : Yes Format settings, RefFrames : 7 frames Codec ID : V_MPEG4/ISO/AVC Duration : 1 h 23 min Bit rate : 2 400 kb/s Width : 1 280 pixels Height : 694 pixels Display aspect ratio : 1.85:1 Frame rate mode : Constant Frame rate : 23.976 FPS Color space : YUV Chroma subsampling : 4:2:0 Bit depth : 8 bits Scan type : Progressive Bits/(Pixel*Frame) : 0.113 Stream size : 1.37 GiB (89%) Writing library : x264 core 130 r2273 b3065e6 Encoding settings : cabac=1 / ref=7 / deblock=1:0:0 / analyse=0x3:0x133 / me=umh / subme=11 / psy=1 / psy_rd=1.00:0.25 / mixed_ref=0 / me_range=21 / chroma_me=1 / trellis=2 / 8x8dct=1 / cqm=0 / deadzone=21,11 / fast_pskip=1 / chroma_qp_offset=-4 / threads=3 / lookahead_threads=1 / sliced_threads=0 / nr=0 / decimate=1 / interlaced=0 / bluray_compat=0 / constrained_intra=0 / bframes=6 / b_pyramid=2 / b_adapt=2 / b_bias=0 / direct=1 / weightb=1 / open_gop=0 / weightp=1 / keyint=240 / keyint_min=24 / scenecut=40 / intra_refresh=0 / rc_lookahead=10 / rc=2pass / mbtree=1 / bitrate=2400 / ratetol=1.0 / qcomp=0.60 / qpmin=0 / qpmax=69 / qpstep=4 / cplxblur=20.0 / qblur=0.5 / vbv_maxrate=62500 / vbv_bufsize=78125 / nal_hrd=none / ip_ratio=1.40 / aq=1:1.00 Language : English Default : Yes Forced : No Color range : Limited Color primaries : BT.709 Transfer characteristics : BT.709 Matrix coefficients : BT.709 Audio ID : 2 Format : AC-3 Format/Info : Audio Coding 3 Mode : Dolby Digital Format settings, Endianness : Big Codec ID : A_AC3 Duration : 1 h 23 min Bit rate mode : Constant Bit rate : 224 kb/s Channel(s) : 2 channels Channel positions : Front: L R Sampling rate : 48.0 kHz Frame rate : 31.250 FPS (1536 SPF) Bit depth : 16 bits Compression mode : Lossy Stream size : 133 MiB (9%) Language : French Service kind : Complete Main Default : Yes Forced : No



La Grosse caisse[DVDRiP MKV]


Alvin et les Chipmunks - A fond la caisse


Alvin et les Chipmunks - A fond la caisse[DVDRiP]




Monique est demandée caisse 12 -


L'Homme Qu'on Aimait Trop


Discount



Related links: